<?xml version="1.0" standalone="no"?>
<!DOCTYPE svg PUBLIC "-//W3C//DTD SVG 1.1//EN" "http://www.w3.org/Graphics/SVG/1.1/DTD/svg11.dtd" >
<svg xmlns="http://www.w3.org/2000/svg" xmlns:xlink="http://www.w3.org/1999/xlink" version="1.1">
<metadata>
Created by FontForge 20201107 at Tue Dec 24 18:40:05 2024
 By 
Mark Bloom and Joe Leadbeater (c) 2018
</metadata>
<defs>
<font id="Aeonik-Bold" horiz-adv-x="1228" >
  <font-face 
    font-family="Aeonik"
    font-weight="700"
    font-stretch="normal"
    units-per-em="2048"
    panose-1="2 1 5 3 3 3 0 0 0 0"
    ascent="1638"
    descent="-410"
    x-height="1053"
    cap-height="1434"
    bbox="-834 -422 4448 1892"
    underline-thickness="176"
    underline-position="-585"
    unicode-range="U+0020-1F10C"
  />
<missing-glyph horiz-adv-x="1269" 
d="M164 1434h942v-1573h-942v1573z" />
    <glyph glyph-name="fi" unicode="fi" horiz-adv-x="1222" 
d="M860 1212q-47 47 -47 117q0 69 47 116q46 46 119 46t120 -46q48 -47 48 -116q0 -71 -48 -117q-49 -47 -120 -47q-72 0 -119 47zM1122 0h-288v809h-377v-809h-289v809h-174v244h174v92q0 139 80 214t237 75h203v-246h-145q-45 0 -66 -21q-20 -20 -20 -65v-49h665v-1053z
" />
    <glyph glyph-name="f_f.liga" unicode="ff" horiz-adv-x="1392" 
d="M1122 1102v-49h264v-244h-264v-809h-288v809h-377v-809h-289v809h-174v244h174v92q0 139 80 214t237 75h203v-246h-145q-45 0 -66 -21q-20 -20 -20 -65v-49h377v92q0 140 80 214q81 75 237 75h238v-246h-179q-88 0 -88 -86z" />
    <glyph glyph-name="f_f_i.liga" unicode="ffi" horiz-adv-x="1890" 
d="M1527 1212q-48 46 -48 117q0 69 48 116q47 46 120 46q72 0 119 -46q49 -47 49 -116q0 -70 -49 -117t-119 -47q-71 0 -120 47zM1790 0h-289v809h-379v-809h-288v809h-377v-809h-289v809h-174v244h174v92q0 139 80 214t237 75h203v-246h-145q-45 0 -66 -21q-20 -20 -20 -65
v-49h377v92q0 140 80 214q81 75 237 75h203v-246h-144q-88 0 -88 -86v-49h668v-1053z" />
    <glyph glyph-name="f_f_t.liga" unicode="fft" horiz-adv-x="2062" 
d="M2040 244v-244h-238q-303 0 -303 301v508h-377v-809h-288v809h-377v-809h-289v809h-174v244h174v92q0 139 80 214t237 75h203v-246h-145q-45 0 -66 -21q-20 -20 -20 -65v-49h377v92q0 140 80 214q81 75 237 75h203v-246h-144q-88 0 -88 -86v-49h377v295h291v-295h240
v-244h-240v-461q0 -56 24 -80t78 -24h148z" />
    <glyph glyph-name="f_t.liga" unicode="ft" horiz-adv-x="1394" 
d="M1374 244v-244h-239q-301 0 -301 301v508h-377v-809h-289v809h-174v244h174v92q0 139 80 214t237 75h203v-246h-145q-45 0 -66 -21q-20 -20 -20 -65v-49h377v295h288v-295h240v-244h-240v-461q0 -56 24 -80t79 -24h149z" />
    <glyph glyph-name="t_t.liga" unicode="tt" horiz-adv-x="1409" 
d="M1386 244v-244h-239q-301 0 -301 301v508h-389v-461q0 -57 23 -80q24 -24 79 -24h123v-244h-213q-301 0 -301 301v508h-174v244h174v295h289v-295h389v295h289v-295h241v-244h-241v-461q0 -56 24 -80t78 -24h149z" />
    <glyph glyph-name=".notdef" horiz-adv-x="1269" 
d="M164 1434h942v-1573h-942v1573z" />
    <glyph glyph-name=".null" horiz-adv-x="0" 
 />
    <glyph glyph-name="nonmarkingreturn" horiz-adv-x="682" 
 />
    <glyph glyph-name="space" unicode=" " horiz-adv-x="507" 
 />
    <glyph glyph-name="exclam" unicode="!" horiz-adv-x="591" 
d="M188 444l-47 990h310l-43 -990h-220zM172 282q50 48 123 48q75 0 125 -48q49 -48 49 -124q0 -74 -49 -122q-50 -48 -125 -48q-73 0 -123 48q-49 48 -49 122q0 76 49 124z" />
    <glyph glyph-name="quotedbl" unicode="&#x22;" horiz-adv-x="845" 
d="M70 1303q0 63 40 102t111 39q74 0 113 -39t39 -100q0 -19 -2 -35l-60 -391h-180l-59 391q-2 16 -2 33zM473 1303q0 63 40 102q41 39 112 39q73 0 112 -39t39 -100q0 -19 -2 -35l-59 -391h-180l-60 391q-2 16 -2 33z" />
    <glyph glyph-name="numbersign" unicode="#" horiz-adv-x="1150" 
d="M328 1241h237l-45 -289h205l43 289h236l-43 -289h141v-239h-176l-27 -185h160v-239h-195l-43 -289h-237l45 289h-205l-43 -289h-236l43 289h-141v239h176l27 185h-160v239h195zM485 713l-26 -185h205l26 185h-205z" />
    <glyph glyph-name="dollar" unicode="$" horiz-adv-x="1280" 
d="M999 781q100 -41 159 -121q61 -82 61 -216q0 -174 -124 -297q-124 -122 -323 -151v-215h-254v219q-201 34 -327 163q-123 126 -125 308l301 -4q7 -107 87 -171q80 -65 210 -65q107 0 177 47q68 46 68 128q0 56 -38 91q-36 33 -106 53q-71 20 -212 48q-143 27 -238 69
t-156 125q-61 84 -61 220q0 162 116 280t304 146v217h254v-221q184 -34 299 -154q115 -119 119 -285h-301q-11 92 -78 149q-66 56 -178 56q-103 0 -164 -43t-61 -123q0 -59 36 -89q38 -31 105 -51q61 -18 209 -46q143 -27 241 -67z" />
    <glyph glyph-name="percent" unicode="%" horiz-adv-x="1912" 
d="M141 1273q50 81 134 127q85 46 192 46t192 -46q88 -48 135 -127q48 -81 48 -181q0 -101 -48 -182q-47 -79 -135 -127q-85 -46 -192 -46t-192 46q-84 46 -134 127q-49 80 -49 182q0 101 49 181zM324 0l983 1434h284l-983 -1434h-284zM569 1196q-41 41 -102 41
q-59 0 -100 -41t-41 -104q0 -64 41 -105t100 -41q61 0 102 41t41 105q0 63 -41 104zM1119 523q47 80 134 127q85 46 193 46q106 0 191 -46q86 -47 135 -127t49 -181t-49 -181t-135 -127q-85 -46 -191 -46q-108 0 -193 46q-87 47 -134 127q-48 81 -48 181t48 181zM1546 445
q-40 42 -100 42q-62 0 -103 -42q-40 -41 -40 -103q0 -64 40 -104q41 -41 103 -41q59 0 100 41t41 104q0 60 -41 103z" />
    <glyph glyph-name="ampersand" unicode="&#x26;" horiz-adv-x="1646" 
d="M1306 247q20 -7 58 -7h145v-240h-190q-88 0 -157 24q-70 24 -124 80l-24 25q-87 -71 -180 -106t-203 -35q-225 0 -369 99q-143 98 -143 286q0 118 68 221q68 104 231 176q-67 84 -90 149q-23 66 -23 158q0 105 57 189q57 83 160 132q102 48 232 48q109 0 202 -44
t146 -121t53 -173q0 -114 -72 -206q-71 -91 -254 -167l5 -4l227 -242l180 285h272l-301 -444l48 -49q23 -26 46 -34zM632 1198q-44 -46 -44 -113q0 -60 22 -101t78 -103q103 45 149 99q46 53 46 122q0 63 -39 102t-101 39q-67 0 -111 -45zM868 285l-321 342
q-70 -44 -100 -97q-29 -51 -29 -122q0 -96 62 -146q63 -51 169 -51q112 0 219 74z" />
    <glyph glyph-name="quotesingle" unicode="'" horiz-adv-x="442" 
d="M70 1303q0 63 40 102t111 39q74 0 113 -39t39 -100q0 -19 -2 -35l-60 -391h-180l-59 391q-2 16 -2 33z" />
    <glyph glyph-name="parenleft" unicode="(" horiz-adv-x="688" 
d="M729 1434q-185 -248 -264 -457q-76 -201 -76 -465q0 -257 77 -461q76 -202 263 -461h-303q-169 229 -245 447q-77 220 -77 475q0 258 78 477q79 222 244 445h303z" />
    <glyph glyph-name="parenright" unicode=")" horiz-adv-x="688" 
d="M524 989q78 -219 78 -477q0 -255 -77 -475t-244 -447h-304q189 262 264 461q76 201 76 461q0 266 -75 465q-78 206 -265 457h304q163 -220 243 -445z" />
    <glyph glyph-name="asterisk" unicode="*" horiz-adv-x="888" 
d="M821 1122l-235 -84l162 -178l-152 -129l-154 215l-151 -213l-152 129l164 178l-235 86l79 181l207 -107l-8 234h195l-9 -236l207 107z" />
    <glyph glyph-name="plus" unicode="+" horiz-adv-x="1054" 
d="M395 1032h262v-327h312v-244h-312v-330h-262v330h-309v244h309v327z" />
    <glyph glyph-name="comma" unicode="," horiz-adv-x="507" 
d="M389 249q60 -75 60 -194q0 -169 -103 -260t-280 -92v150q94 1 144 41q50 39 50 98q0 18 -2 28q-32 -16 -65 -16q-60 0 -100 40t-40 116q0 67 52 115q54 49 128 49q96 0 156 -75z" />
    <glyph glyph-name="hyphen" unicode="-" horiz-adv-x="880" 
d="M82 465v233h717v-233h-717z" />
    <glyph glyph-name="period" unicode="." horiz-adv-x="507" 
d="M129 282q49 48 125 48q75 0 124 -49q50 -50 50 -123q0 -74 -50 -122t-124 -48q-76 0 -125 48t-49 122q0 76 49 124z" />
    <glyph glyph-name="slash" unicode="/" horiz-adv-x="694" 
d="M-88 -410l600 1844h272l-602 -1844h-270z" />
    <glyph glyph-name="zero" unicode="0" horiz-adv-x="1323" 
d="M72 750q0 213 74 368q75 157 209 243q133 85 307 85q175 0 308 -85q134 -86 209 -243q74 -155 74 -368v-66q0 -218 -74 -372q-75 -156 -209 -240t-308 -84q-175 0 -308 84t-208 240q-74 154 -74 372v66zM878 1076q-81 120 -216 120q-134 0 -215 -120q-80 -119 -80 -337
v-45q0 -218 80 -337t215 -119q136 0 216 119t80 337v45q0 218 -80 337z" />
    <glyph glyph-name="one" unicode="1" horiz-adv-x="755" 
d="M629 1434v-1434h-295v915q-26 -10 -78 -10h-240v244h215q54 0 81 42q28 44 28 103v140h289z" />
    <glyph glyph-name="two" unicode="2" horiz-adv-x="1179" 
d="M606 678q104 83 154 153q49 68 49 152q0 104 -63 161q-62 56 -166 56q-100 0 -163 -67t-63 -183v-22h-297v39q0 133 65 245q64 110 183 173q118 63 275 63q252 0 390 -123t138 -330q0 -146 -73 -255q-70 -105 -224 -230l-322 -262h625v-248h-1051v227z" />
    <glyph glyph-name="three" unicode="3" horiz-adv-x="1249" 
d="M1092 628q88 -85 88 -229q0 -123 -69 -216t-196 -144t-294 -51q-257 0 -406 130t-149 359h292q2 -119 80 -188q79 -70 199 -70q105 0 173 55q69 56 69 150q0 85 -68 135q-67 49 -195 49h-141v236h125q119 0 183 52q65 53 65 140q0 84 -60 131q-61 47 -155 47
q-105 0 -172 -57q-69 -58 -70 -156h-289q2 207 143 326q142 119 376 119q248 0 386 -105t138 -278q0 -127 -77 -207q-78 -81 -204 -111q142 -33 228 -117z" />
    <glyph glyph-name="four" unicode="4" horiz-adv-x="1282" 
d="M43 551l633 883h364v-881h199v-246h-199v-307h-288v307h-709v244zM324 553h428v594z" />
    <glyph glyph-name="five" unicode="5" horiz-adv-x="1222" 
d="M933 914q109 -63 172 -174q62 -109 62 -255q0 -160 -72 -271q-72 -112 -196 -169q-123 -57 -274 -57q-164 0 -285 62q-123 63 -190 170q-68 109 -74 241h293q12 -99 83 -166q70 -66 173 -66q100 0 173 67q72 66 72 189q0 115 -67 186q-67 72 -178 72q-78 0 -144 -33
q-70 -35 -98 -116h-285l41 840h940v-248h-671l-17 -320q117 111 297 111q135 0 245 -63z" />
    <glyph glyph-name="six" unicode="6" horiz-adv-x="1263" 
d="M105 430q-33 119 -33 272q0 238 71 404q72 168 205 255q134 87 314 87q204 0 346 -113t166 -305h-291q-21 87 -84 133q-64 47 -160 47q-140 0 -214 -107q-75 -108 -75 -306v-35l19 31q50 76 140 122t198 46q142 0 252 -62q109 -61 171 -171t62 -253t-67 -256
q-66 -111 -188 -171q-121 -60 -280 -60q-148 0 -263 58q-113 57 -191 167q-63 92 -98 217zM834 659q-66 72 -175 72q-108 0 -177 -72q-68 -71 -68 -184q0 -112 66 -184t175 -72q108 0 176 73t68 183q0 113 -65 184z" />
    <glyph glyph-name="seven" unicode="7" horiz-adv-x="1118" 
d="M23 1434h1050v-191l-631 -1243h-319l627 1184h-727v250z" />
    <glyph glyph-name="eight" unicode="8" horiz-adv-x="1245" 
d="M1089 631q84 -88 84 -242q0 -119 -64 -210q-65 -92 -188 -141q-126 -50 -298 -50t-298 50q-125 50 -189 141t-64 210q0 150 84 240t215 119q-112 30 -185 112t-73 209q0 113 60 199q61 87 176 133q117 47 274 47q156 0 273 -47q115 -46 176 -133t61 -199q0 -119 -75 -206
q-74 -86 -184 -115q130 -27 215 -117zM463 1188q-62 -51 -62 -133q0 -83 62 -136t160 -53q93 0 158 54q63 52 63 135q0 82 -63 133t-158 51q-99 0 -160 -51zM805 255q74 60 74 153t-74 156q-73 63 -182 63q-111 0 -185 -63q-73 -63 -73 -156t73 -153q74 -60 185 -60
q109 0 182 60z" />
    <glyph glyph-name="nine" unicode="9" horiz-adv-x="1263" 
d="M1155 1017q37 -129 37 -284q0 -355 -154 -551q-152 -194 -436 -194q-221 0 -357 109q-137 110 -161 309h289q22 -89 83 -134q64 -47 160 -47q143 0 219 109q74 107 74 305v37q-31 -44 -32 -45q-50 -70 -135 -112q-81 -40 -185 -40q-143 0 -254 60t-171 168t-60 251
q0 142 66 253q65 110 189 174q121 63 279 63q144 0 255 -54t188 -155q68 -90 106 -222zM430 780q65 -71 174 -71t177 71q69 72 69 183q0 109 -67 182q-66 72 -175 72t-176 -72q-67 -71 -67 -182q0 -112 65 -183z" />
    <glyph glyph-name="colon" unicode=":" horiz-adv-x="507" 
d="M129 994q50 48 125 48t124 -49q50 -50 50 -123t-50 -121q-51 -49 -124 -49q-74 0 -125 49q-49 48 -49 121q0 76 49 124zM129 282q49 48 125 48q75 0 124 -49q50 -50 50 -123q0 -74 -50 -122t-124 -48q-76 0 -125 48t-49 122q0 76 49 124z" />
    <glyph glyph-name="semicolon" unicode=";" horiz-adv-x="507" 
d="M389 249q60 -75 60 -194q0 -169 -103 -260t-280 -92v150q94 1 144 41q50 39 50 98q0 18 -2 28q-32 -16 -65 -16q-60 0 -100 40t-40 116q0 67 52 115q54 49 128 49q96 0 156 -75zM119 992q49 48 125 48q75 0 124 -49q50 -50 50 -123q0 -74 -50 -122t-124 -48
q-76 0 -125 48t-49 122q0 76 49 124z" />
    <glyph glyph-name="less" unicode="&#x3c;" horiz-adv-x="1054" 
d="M123 446v271l809 336v-279l-488 -192l488 -193v-278z" />
    <glyph glyph-name="equal" unicode="=" horiz-adv-x="1054" 
d="M106 670v243h842v-243h-842zM106 229v242h842v-242h-842z" />
    <glyph glyph-name="greater" unicode="&#x3e;" horiz-adv-x="1054" 
d="M932 717v-271l-809 -335v278l487 193l-487 192v279z" />
    <glyph glyph-name="question" unicode="?" horiz-adv-x="1093" 
d="M105 1199q59 112 176 180q116 67 272 67q151 0 259 -49q110 -50 169 -137t59 -201q0 -133 -54 -210q-55 -77 -159 -149q-95 -64 -130 -106q-38 -46 -38 -107v-26h-270v57q0 117 52 182q51 64 165 131q70 44 105 93q32 45 32 108q0 74 -51 120q-50 46 -137 46
q-98 0 -158 -69q-59 -68 -59 -181h-293q0 137 60 251zM411 271q47 46 121 46q75 0 122 -46q48 -47 48 -117q0 -73 -49 -119q-50 -47 -121 -47q-70 0 -120 47t-50 119q0 70 49 117z" />
    <glyph glyph-name="at" unicode="@" horiz-adv-x="2009" 
d="M217 956q128 206 346 321q220 116 481 116q254 0 455 -96q197 -94 309 -265q111 -170 111 -387q0 -163 -66 -287q-66 -125 -179 -193q-114 -69 -255 -69q-89 0 -148 45q-58 45 -73 117l-6 27q-40 -84 -125 -135q-86 -52 -184 -52q-89 0 -169 47q-78 46 -126 137
q-47 89 -47 210q0 130 54 238q53 106 147 170q93 63 210 63q101 0 164 -39q62 -39 78 -93l37 117h231l-65 -571l-2 -27q0 -47 20 -67q21 -21 64 -21q57 0 109 51q51 50 85 142q33 90 33 200q0 171 -81 298q-83 130 -232 198q-154 70 -355 70q-197 0 -369 -96
q-168 -94 -268 -260q-98 -163 -98 -365q0 -310 192 -476q193 -167 535 -167q245 0 449 104l-9 -186q-77 -46 -198 -72q-123 -27 -268 -27q-260 0 -470 101q-208 100 -326 285t-118 434q0 255 127 460zM1130 709q-45 47 -116 47q-86 0 -146 -72q-59 -71 -59 -174
q0 -98 46 -150q47 -53 116 -53q83 0 144 73t61 193q0 88 -46 136z" />
    <glyph glyph-name="A" unicode="A" horiz-adv-x="1429" 
d="M8 0l524 1434h369l520 -1434h-329l-111 313h-545l-110 -313h-318zM518 561h379l-190 545z" />
    <glyph glyph-name="B" unicode="B" horiz-adv-x="1323" 
d="M668 1434q250 0 387 -99t137 -278q0 -132 -74 -215t-209 -107q162 -21 247 -102q87 -83 87 -230q0 -188 -143 -295q-144 -108 -406 -108h-571v1434h545zM430 844h246q97 0 153 47t56 127t-56 127t-153 47h-246v-348zM430 244h266q110 0 171 47t61 131q0 88 -62 136
q-61 48 -170 48h-266v-362z" />
    <glyph glyph-name="C" unicode="C" horiz-adv-x="1437" 
d="M151 1101q86 166 243 255q159 90 374 90q168 0 301 -66t215 -184q81 -117 98 -274h-307q-27 124 -111 193q-86 71 -212 71q-172 0 -273 -129q-100 -128 -100 -340q0 -209 100 -339t273 -130q127 0 212 70q84 69 111 194h307q-17 -157 -98 -274q-84 -120 -215 -185
t-301 -65q-215 0 -374 90q-157 89 -243 255q-85 164 -85 384t85 384z" />
    <glyph glyph-name="D" unicode="D" horiz-adv-x="1409" 
d="M123 1434h498q213 0 379 -92q167 -93 254 -253q89 -164 89 -372t-89 -372q-88 -162 -254 -254q-164 -91 -379 -91h-498v1434zM621 256q194 0 302 126q107 125 107 335t-107 335q-108 126 -302 126h-191v-922h191z" />
    <glyph glyph-name="E" unicode="E" horiz-adv-x="1169" 
d="M123 1434h962v-265h-655v-321h533v-252h-533v-332h678v-264h-985v1434z" />
    <glyph glyph-name="F" unicode="F" horiz-adv-x="1114" 
d="M123 1434h946v-265h-639v-335h524v-252h-524v-582h-307v1434z" />
    <glyph glyph-name="G" unicode="G" horiz-adv-x="1533" 
d="M152 1101q86 165 246 255t378 90q170 0 305 -66q136 -67 218 -184q84 -121 102 -272h-303q-28 119 -115 191q-86 71 -215 71q-118 0 -207 -60q-89 -61 -135 -165q-47 -108 -47 -244q0 -212 103 -340q104 -129 286 -129q133 0 236 73q101 71 122 214v18h-356v244h641v-797
h-213l-33 178q-63 -84 -170 -137q-108 -53 -247 -53q-204 0 -358 90q-153 89 -239 256q-85 166 -85 383q0 218 86 384z" />
    <glyph glyph-name="H" unicode="H" horiz-adv-x="1427" 
d="M123 1434h307v-576h569v576h308v-1434h-308v592h-569v-592h-307v1434z" />
    <glyph glyph-name="I" unicode="I" horiz-adv-x="550" 
d="M123 1434h307v-1434h-307v1434z" />
    <glyph glyph-name="J" unicode="J" horiz-adv-x="813" 
d="M690 1434v-1053q0 -180 -99 -281q-99 -100 -282 -100h-264v266h170q90 0 129 42t39 132v994h307z" />
    <glyph glyph-name="K" unicode="K" horiz-adv-x="1398" 
d="M123 1432h307v-644l574 644h372l-526 -590l561 -842h-369l-409 604l-203 -227v-377h-307v1432z" />
    <glyph glyph-name="L" unicode="L" horiz-adv-x="1042" 
d="M123 0v1434h307v-1170h569v-264h-876z" />
    <glyph glyph-name="M" unicode="M" horiz-adv-x="1826" 
d="M123 1434h403l398 -1053l385 1053h395v-1434h-293v961l-373 -961h-250l-372 961v-961h-293v1434z" />
    <glyph glyph-name="N" unicode="N" horiz-adv-x="1433" 
d="M123 0v1434h278l609 -904v904h303v-1434h-281l-608 903v-903h-301z" />
    <glyph glyph-name="O" unicode="O" horiz-adv-x="1550" 
d="M1397 343q-90 -167 -252 -261q-161 -94 -369 -94q-207 0 -368 94q-162 94 -252 261t-90 374q0 208 90 374q90 167 252 261q161 94 368 94q208 0 369 -94q162 -94 252 -261q90 -166 90 -374q0 -207 -90 -374zM428 475q50 -108 139 -167q90 -60 209 -60q117 0 207 60
q89 59 139 167q49 105 49 242q0 136 -49 241q-50 108 -139 167q-92 61 -207 61q-118 0 -209 -61q-89 -59 -139 -167q-49 -105 -49 -241q0 -137 49 -242z" />
    <glyph glyph-name="P" unicode="P" horiz-adv-x="1273" 
d="M707 1434q151 0 271 -59q117 -58 182 -167t65 -252q0 -141 -65 -250q-64 -108 -182 -166q-120 -59 -271 -59h-277v-481h-307v1434h584zM430 737h248q109 0 172 60t63 159q0 102 -63 162t-172 60h-248v-441z" />
    <glyph glyph-name="Q" unicode="Q" horiz-adv-x="1564" 
d="M1540 260v-260h-147q-86 0 -135 23t-89 73q-169 -108 -393 -108q-207 0 -368 94q-162 94 -252 261t-90 374q0 208 90 374q90 167 252 261q161 94 368 94q208 0 369 -94q162 -94 252 -261q90 -166 90 -374q0 -257 -135 -447q20 -10 47 -10h141zM428 475q50 -108 139 -167
q90 -60 209 -60q124 0 219 67l-20 25q-24 32 -47 48q-22 15 -56 15h-133v261h156q80 0 125 -25q41 -23 86 -80l33 -43q32 87 32 201q0 136 -49 241q-50 108 -139 167q-92 61 -207 61q-118 0 -209 -61q-89 -59 -139 -167q-49 -105 -49 -241q0 -137 49 -242z" />
    <glyph glyph-name="R" unicode="R" horiz-adv-x="1314" 
d="M707 1434q154 0 275 -59q118 -58 185 -167q66 -108 66 -252q0 -137 -66 -242q-66 -106 -180 -161l283 -553h-340l-240 481h-260v-481h-307v1434h584zM430 737h252q108 0 173 60t65 159q0 102 -65 162q-64 60 -173 60h-252v-441z" />
    <glyph glyph-name="S" unicode="S" horiz-adv-x="1280" 
d="M367 467q7 -107 87 -171q80 -65 210 -65q107 0 177 47q68 46 68 128q0 56 -38 91q-36 33 -106 53q-71 20 -212 48q-143 27 -238 69t-156 125q-61 84 -61 220q0 124 69 223q68 98 190 155q119 56 276 56q158 0 283 -58q127 -59 199 -161q74 -104 75 -232h-301
q-11 92 -78 149q-66 56 -178 56q-103 0 -164 -43t-61 -123q0 -59 36 -89q38 -31 105 -51q61 -18 209 -46q143 -27 241 -67q100 -41 159 -121q61 -82 61 -216q0 -130 -72 -234q-71 -102 -200 -163q-125 -59 -288 -59q-175 0 -306 62q-135 63 -210 173t-77 248z" />
    <glyph glyph-name="T" unicode="T" horiz-adv-x="1224" 
d="M45 1434h1135v-265h-414v-1169h-307v1169h-414v265z" />
    <glyph glyph-name="U" unicode="U" horiz-adv-x="1402" 
d="M420 1434v-832q0 -174 67 -262t213 -88q145 0 214 88q69 89 69 262v832h307v-816q0 -306 -150 -468t-440 -162q-288 0 -438 162q-149 161 -149 468v816h307z" />
    <glyph glyph-name="V" unicode="V" horiz-adv-x="1339" 
d="M0 1434h326l344 -1061l352 1061h317l-485 -1434h-367z" />
    <glyph glyph-name="W" unicode="W" horiz-adv-x="2029" 
d="M18 1434l318 2l264 -1049l281 1047h276l273 -1047l270 1047h311l-397 -1434h-354l-248 952l-242 -952h-354z" />
    <glyph glyph-name="X" unicode="X" horiz-adv-x="1386" 
d="M500 731l-447 703h373l283 -451l288 451h336l-446 -703l469 -731h-375l-305 481l-311 -481h-334z" />
    <glyph glyph-name="Y" unicode="Y" horiz-adv-x="1359" 
d="M0 1434h358l322 -588l338 588h342l-526 -902v-532h-308v532z" />
    <glyph glyph-name="Z" unicode="Z" horiz-adv-x="1286" 
d="M74 1434h1138v-203l-735 -969h754v-262h-1176v203l736 968h-717v263z" />
    <glyph glyph-name="bracketleft" unicode="[" horiz-adv-x="673" 
d="M104 1434h547v-252h-276v-1340h276v-252h-547v1844z" />
    <glyph glyph-name="backslash" unicode="\" horiz-adv-x="694" 
d="M782 -410h-270l-602 1844h272z" />
    <glyph glyph-name="bracketright" unicode="]" horiz-adv-x="673" 
d="M569 -410h-546v252h276v1340h-276v252h546v-1844z" />
    <glyph glyph-name="asciicircum" unicode="^" horiz-adv-x="1077" 
d="M66 795l360 639h225l363 -639h-264l-218 385l-217 -385h-249z" />
    <glyph glyph-name="underscore" unicode="_" horiz-adv-x="1032" 
d="M102 -279v267h828v-267h-828z" />
    <glyph glyph-name="grave" unicode="`" horiz-adv-x="819" 
d="M39 1434h330l143 -295h-217z" />
    <glyph glyph-name="a" unicode="a" horiz-adv-x="1148" 
d="M1137 244v-244h-148q-99 0 -147.5 43t-46.5 129q-57 -90 -142 -137t-202 -47q-176 0 -284 81t-108 228q0 168 124 259t360 91h209v51q0 71 -54 114q-52 42 -143 42q-79 0 -131 -35t-62 -94h-278q15 163 143 251q130 89 342 89q225 0 345 -98q122 -99 122 -285v-371
q0 -38 17 -53q15 -14 51 -14h33zM752 455h-211q-91 0 -141 -36t-50 -102q0 -55 42 -88q41 -32 114 -32q113 0 178 64q66 65 68 173v21z" />
    <glyph glyph-name="b" unicode="b" horiz-adv-x="1253" 
d="M958 1000q111 -64 174 -186q62 -120 62 -286q0 -161 -62 -282q-63 -124 -174 -191q-110 -67 -249 -67q-111 0 -193 42q-84 43 -135 113l-29 -143h-252v1434h289v-514q121 145 318 145q139 0 251 -65zM829 307q72 84 72 219t-72 219t-188 84q-117 0 -186 -83
q-70 -84 -70 -218q0 -136 70 -221q69 -84 186 -84q116 0 188 84z" />
    <glyph glyph-name="c" unicode="c" horiz-adv-x="1167" 
d="M949 97q-133 -109 -347 -109q-164 0 -287 66q-122 66 -189 190q-67 125 -67 282q0 161 67 284t190 188q126 67 288 67q210 0 344 -108q134 -109 164 -298h-299q-18 77 -74 124q-55 46 -137 46q-112 0 -180 -84q-68 -85 -68 -219t68 -219q68 -84 180 -84q82 0 140 47
q56 46 73 129h297q-28 -192 -163 -302z" />
    <glyph glyph-name="d" unicode="d" horiz-adv-x="1253" 
d="M1153 1434v-1434h-252l-29 145q-121 -157 -327 -157q-139 0 -250 66q-109 65 -173 190q-63 123 -63 284q0 160 63 282t174 188q113 67 251 67q205 0 317 -143v512h289zM799 306q69 82 69 218q0 137 -69 221t-187 84q-116 0 -187 -84q-71 -85 -71 -219t71 -219
q71 -84 187 -84q118 0 187 83z" />
    <glyph glyph-name="e" unicode="e" horiz-adv-x="1189" 
d="M126 810q66 122 186 188q122 67 278 67q160 0 281 -63q123 -64 191 -176q70 -115 71 -267q0 -46 -9 -98h-764v-8q11 -115 74 -181q62 -65 174 -65q88 0 147 38q58 37 76 111h285q-16 -103 -80 -188q-63 -84 -168 -132t-239 -48q-178 0 -304 65q-128 66 -197 188t-69 283
q0 163 67 286zM844 649q-15 97 -79 149t-163 52q-94 0 -159 -54q-64 -53 -76 -147h477z" />
    <glyph glyph-name="f" unicode="f" horiz-adv-x="727" 
d="M168 1053v92q0 139 80 214t237 75h236v-246h-178q-45 0 -66 -21q-20 -20 -20 -65v-49h264v-244h-264v-809h-289v809h-174v244h174z" />
    <glyph glyph-name="g" unicode="g" horiz-adv-x="1253" 
d="M1153 1053v-1022q0 -207 -137 -330q-136 -123 -426 -123q-226 0 -361 98q-137 99 -147 279h291q21 -77 81 -117q61 -41 158 -41q123 0 191 62q67 61 67 182v111q-114 -146 -325 -146q-139 0 -250 66q-110 66 -173 185q-63 120 -63 280q0 157 63 278q62 119 174 186
q111 66 251 66q205 0 327 -160l25 146h254zM799 319q69 83 69 213q0 134 -69 218t-187 84q-116 0 -187 -83t-71 -216t71 -216q69 -81 187 -81q119 0 187 81z" />
    <glyph glyph-name="h" unicode="h" horiz-adv-x="1208" 
d="M1007 950q119 -113 119 -379v-571h-288v559q0 129 -54 200q-52 68 -159 68q-111 0 -173 -75q-63 -76 -63 -211v-541h-289v1434h289v-510q117 141 311 141q186 0 307 -115z" />
    <glyph glyph-name="i" unicode="i" horiz-adv-x="489" 
d="M365 1445q47 -47 47 -116q0 -70 -47 -117t-119 -47q-71 0 -120 47q-48 46 -48 117q0 69 48 116q47 46 120 46t119 -46zM100 1053h289v-1053h-289v1053z" />
    <glyph glyph-name="j" unicode="j" horiz-adv-x="499" 
d="M374 1445q48 -47 48 -116q0 -71 -48 -117q-49 -47 -120 -47q-72 0 -119 47t-47 117q0 69 47 116q46 46 119 46t120 -46zM6 -166q53 0 79 28t26 89v1102h288v-1143q0 -151 -77 -235q-78 -85 -226 -85h-190v244h100z" />
    <glyph glyph-name="k" unicode="k" horiz-adv-x="1150" 
d="M100 1434h289v-830l414 449h323l-374 -412l395 -641h-334l-266 426l-158 -170v-256h-289v1434z" />
    <glyph glyph-name="l" unicode="l" horiz-adv-x="489" 
d="M100 1434h289v-1434h-289v1434z" />
    <glyph glyph-name="m" unicode="m" horiz-adv-x="1830" 
d="M1642 952q107 -113 107 -374v-580h-289v590q0 239 -182 239q-95 0 -152 -66t-57 -186v-577h-289v590q0 239 -184 239q-95 0 -151 -68t-56 -186v-575h-289v1055h252l27 -131q51 65 127 104q74 38 184 39q226 0 314 -178q57 85 150 132q92 46 212 46q169 0 276 -113z" />
    <glyph glyph-name="n" unicode="n" horiz-adv-x="1208" 
d="M1008 950q118 -114 118 -379v-571h-288v555q0 272 -213 272q-114 0 -174 -75q-62 -77 -62 -213v-539h-289v1053h252l27 -131q56 68 133 105q79 38 193 38q183 0 303 -115z" />
    <glyph glyph-name="o" unicode="o" 
d="M323 54q-125 66 -195 190q-69 123 -69 282q0 160 69 283t195 189q128 67 291 67q164 0 292 -67q126 -66 195 -189q68 -121 68 -283q0 -163 -68 -283q-70 -124 -195 -189q-126 -66 -292 -66q-165 0 -291 66zM806 307q71 85 71 219t-71 219q-70 84 -192 84q-118 0 -189 -84
q-71 -85 -71 -219t71 -219q71 -84 189 -84q122 0 192 84z" />
    <glyph glyph-name="p" unicode="p" horiz-adv-x="1253" 
d="M959 998q110 -66 173 -189q62 -121 62 -285q0 -162 -62 -282q-63 -122 -174 -188t-251 -66q-204 0 -318 145v-543h-289v1463h252l29 -146q51 70 136 115q82 43 192 43q139 0 250 -67zM829 308q72 86 72 220q0 136 -72 218q-72 83 -188 83q-117 0 -186 -83
q-70 -84 -70 -218q0 -136 70 -221q69 -84 186 -84q116 0 188 85z" />
    <glyph glyph-name="q" unicode="q" horiz-adv-x="1253" 
d="M1153 1053v-1463h-289v545q-118 -147 -317 -147q-142 0 -252 64q-109 63 -173 187q-63 121 -63 285q0 160 63 283t173 190q112 68 250 68q107 0 191 -41q83 -41 136 -113l29 142h252zM799 307q69 84 69 219q0 138 -69 220q-69 83 -187 83q-116 0 -187 -83t-71 -218
q0 -136 71 -221q71 -84 187 -84q118 0 187 84z" />
    <glyph glyph-name="r" unicode="r" horiz-adv-x="770" 
d="M741 1053v-262h-114q-124 0 -181 -74q-57 -73 -57 -201v-516h-289v1053h262l27 -158q45 76 117 118q68 40 186 40h49z" />
    <glyph glyph-name="s" unicode="s" horiz-adv-x="1105" 
d="M336 350q6 -69 67 -112t158 -43q95 0 146 29q53 30 53 85q0 40 -25 62q-23 20 -69 29q-56 11 -148 22q-137 18 -231 47q-93 29 -148 90t-55 164t56 181t159 122q101 43 236 43q214 -1 347 -92q131 -90 142 -250h-274q-6 59 -63 97q-58 38 -144 38q-81 0 -132 -31t-51 -81
q0 -38 27 -56q28 -19 70 -26q60 -10 143 -19q211 -24 327 -91q113 -65 113 -228q0 -102 -60 -180t-168 -120t-249 -42q-220 0 -356 97q-139 99 -146 265h275z" />
    <glyph glyph-name="t" unicode="t" horiz-adv-x="729" 
d="M168 809h-174v244h174v295h289v-295h239v-244h-239v-461q0 -57 23 -80q24 -24 79 -24h150v-244h-240q-301 0 -301 301v508z" />
    <glyph glyph-name="u" unicode="u" horiz-adv-x="1191" 
d="M1092 1053v-1053h-256l-27 127q-53 -63 -129 -102q-73 -37 -180 -37q-185 0 -301 113q-117 114 -117 380v572h289v-537q0 -143 50 -216t154 -73q108 0 168 81t60 227v518h289z" />
    <glyph glyph-name="v" unicode="v" horiz-adv-x="1110" 
d="M-2 1053h309l254 -758l250 758h303l-379 -1053h-358z" />
    <glyph glyph-name="w" unicode="w" horiz-adv-x="1677" 
d="M0 1053h305l211 -742l199 742h260l192 -744l215 744h295l-346 -1053h-307l-184 635l-189 -635h-307z" />
    <glyph glyph-name="x" unicode="x" horiz-adv-x="1130" 
d="M397 537l-372 516h329l219 -312l224 312h309l-371 -516l391 -537h-329l-242 330l-240 -330h-309z" />
    <glyph glyph-name="y" unicode="y" horiz-adv-x="1118" 
d="M305 1053l256 -756l250 756h309l-467 -1203q-40 -103 -69 -150q-34 -55 -83 -82q-51 -28 -130 -28h-281v244h160q55 0 80 19q24 18 47 71l26 70l-405 1059h307z" />
    <glyph glyph-name="z" unicode="z" horiz-adv-x="1030" 
d="M70 1053h891v-197l-527 -612h551v-244h-940v197l526 612h-501v244z" />
    <glyph glyph-name="braceleft" unicode="{" horiz-adv-x="702" 
d="M498 1145q-39 -37 -39 -103q0 -14 8 -57l39 -168q8 -35 8 -69q0 -84 -54 -147q-53 -62 -153 -89q99 -16 154 -76q55 -59 55 -145q0 -35 -10 -84l-39 -168q-8 -48 -8 -59q0 -66 39 -102t110 -36l72 -2v-252h-59q-202 0 -320 89q-117 89 -117 243q0 37 9 84l34 184
q6 21 6 62q0 132 -186 137v250q92 2 140 36q49 35 49 101q0 26 -9 62l-34 184q-9 47 -9 84q0 154 117 243q118 89 320 89h59v-252l-72 -2q-72 0 -110 -37z" />
    <glyph glyph-name="bar" unicode="|" horiz-adv-x="532" 
d="M123 1434h289v-1844h-289v1844z" />
    <glyph glyph-name="braceright" unicode="}" horiz-adv-x="702" 
d="M469 250q0 -41 6 -62l35 -184q8 -42 8 -84q0 -154 -117 -243q-118 -89 -319 -89h-59v252l71 2q72 0 111 36t39 102q0 11 -8 59l-39 168q-11 53 -11 84q0 84 56 145q55 60 153 76q-99 27 -152 89q-55 64 -55 147q0 29 9 69l39 168q8 43 8 57q0 66 -39 103q-38 37 -111 37
l-71 2v252h59q201 0 319 -89q117 -89 117 -243q0 -42 -8 -84l-35 -184q-8 -32 -8 -62q0 -66 48 -101q48 -34 140 -36v-250q-186 -5 -186 -137z" />
    <glyph glyph-name="asciitilde" unicode="~" horiz-adv-x="1054" 
d="M80 369q0 179 66 271q66 91 196 91q72 0 115 -17q51 -20 98 -50q25 -17 52 -31q20 -10 46 -10q92 0 92 108h230q0 -178 -67 -271q-66 -91 -195 -91q-73 0 -119 18q-49 19 -94 51q-3 2 -27 16q-18 10 -38 17q-18 6 -34 6q-49 0 -70 -27q-22 -28 -22 -81h-229z" />
    <glyph glyph-name="exclamdown" unicode="&#xa1;" horiz-adv-x="591" 
d="M432 1398q49 -48 49 -122q0 -76 -49 -124t-125 -48q-73 0 -123 48q-49 48 -49 124q0 74 49 122q50 48 123 48q75 0 125 -48zM201 989h219l43 -989h-309z" />
    <glyph glyph-name="cent" unicode="&#xa2;" horiz-adv-x="1167" 
d="M742 459q56 46 73 129h297q-24 -159 -121 -262t-252 -136v-190h-254v186q-198 35 -312 175q-114 141 -114 354q0 212 114 353q114 140 312 175v191h254v-193q154 -33 250 -135t123 -258h-299q-18 77 -74 124q-55 46 -137 46q-112 0 -180 -84q-68 -85 -68 -219t68 -219
q68 -84 180 -84q82 0 140 47z" />
    <glyph glyph-name="sterling" unicode="&#xa3;" horiz-adv-x="1273" 
d="M205 756q-9 30 -17 62q-12 49 -18 88q-6 41 -6 79q0 135 66 240q65 103 184 161t260 58q243 0 388 -134t157 -366h-293q-7 116 -70 183q-62 67 -172 67q-103 0 -165 -62t-62 -165q0 -34 8 -77q8 -42 19 -80q2 -8 5 -18t5 -15.5t3.5 -11.5t2.5 -9h391v-209h-365
q6 -59 -26 -143q-33 -85 -82 -140l794 -4v-260h-1112v248q56 62 91 141q34 78 42 158h-176v209h148z" />
    <glyph glyph-name="currency" unicode="&#xa4;" horiz-adv-x="1359" 
d="M426 1174q116 67 254 67t254 -67l143 143l203 -203l-139 -139q76 -121 76 -273q0 -134 -66 -253l129 -130l-203 -202l-125 127q-123 -78 -272 -78t-272 78l-125 -127l-203 202l129 130q-66 119 -66 253q0 152 76 273l-139 139l203 203zM473 495q83 -83 207 -83t207 83
q82 82 82 207q0 128 -82 210q-83 83 -207 83t-207 -83q-82 -82 -82 -210q0 -125 82 -207z" />
    <glyph glyph-name="yen" unicode="&#xa5;" horiz-adv-x="1433" 
d="M1360 1434l-412 -723h252v-207h-354v-123h354v-207h-354v-174h-307v174h-355v207h355v123h-355v207h250l-426 723h363l317 -588l330 588h342z" />
    <glyph glyph-name="brokenbar" unicode="&#xa6;" horiz-adv-x="532" 
d="M123 1434h289v-842h-289v842zM123 422h289v-832h-289v832z" />
    <glyph glyph-name="section" unicode="&#xa7;" horiz-adv-x="1296" 
d="M954 360q64 -41 98 -97q33 -55 33 -138q0 -157 -119 -249q-120 -93 -321 -93q-191 0 -315 89q-123 89 -131 243h280q5 -61 49 -95t117 -34t114 29q42 30 42 83q0 65 -43 95q-44 31 -146 59q-183 52 -270 88q-94 39 -157 100q-64 63 -64 164q0 186 211 270
q-123 80 -123 230q0 156 121 249q122 93 321 93q192 0 314 -89q121 -88 129 -243h-279q-4 59 -48 94t-116 35q-71 0 -116 -31q-43 -30 -43 -86q2 -60 45 -90q45 -31 145 -59q181 -52 271 -88q93 -37 158 -101q65 -63 65 -163q0 -180 -222 -265zM705 459l40 -13
q129 45 129 154q0 60 -50 90q-53 32 -181 66q-76 20 -92 26q-131 -47 -131 -151q0 -62 50 -92q53 -32 181 -66z" />
    <glyph glyph-name="dieresis" unicode="&#xa8;" horiz-adv-x="819" 
d="M84 1415q44 43 111 43q66 0 109 -43q44 -44 44 -106q0 -63 -44 -107q-43 -43 -109 -43q-67 0 -111 43q-45 44 -45 107t45 106zM515 1415q43 43 110 43q66 0 110 -43q45 -43 45 -106t-45 -107q-44 -43 -110 -43q-67 0 -110 43q-44 44 -44 107q0 62 44 106z" />
    <glyph glyph-name="copyright" unicode="&#xa9;" horiz-adv-x="1632" 
d="M162 1089q101 169 270 262q173 95 383 95t383 -95q169 -93 270 -262q99 -167 99 -372t-99 -372q-101 -169 -270 -262q-173 -95 -383 -95t-383 95q-169 93 -270 262q-99 167 -99 372t99 372zM1333 1021q-78 136 -214 214t-304 78q-167 0 -304 -78t-213 -214
q-77 -137 -77 -304t77 -304q76 -136 213 -214t304 -78q168 0 304 78t214 214q78 137 78 304q0 168 -78 304zM1071 379q-100 -82 -254 -82q-123 0 -215 57t-140 154q-48 96 -48 211t48 211t140 153q93 58 215 58q147 0 251 -82q106 -83 124 -232h-182q-16 66 -69 108
q-52 42 -122 42q-103 0 -161 -73q-56 -71 -56 -185q0 -111 57 -184q57 -74 160 -74q74 0 124 39q51 40 69 108h180q-21 -147 -121 -229z" />
    <glyph glyph-name="ordfeminine" unicode="&#xaa;" horiz-adv-x="868" 
d="M177 1122q82 56 233 56h120v30q0 44 -30 69q-31 26 -86 26q-45 0 -74 -23q-28 -22 -33 -57h-196q7 106 92 165q83 58 219 58q143 0 224 -64q79 -63 79 -184v-219q0 -25 10 -35t35 -10h18v-148h-94q-64 0 -97 28q-32 27 -32 75v10q-63 -121 -219 -121q-111 0 -180 48
q-70 49 -70 139q0 101 81 157zM530 1061h-127q-50 0 -79 -23t-29 -59q0 -32 24 -50t68 -18q66 0 105 40q38 39 38 104v6zM92 655h696v-161h-696v161z" />
    <glyph glyph-name="guillemotleft" unicode="&#xab;" horiz-adv-x="1245" 
d="M664 1053l-308 -527l308 -526h-291l-312 526l312 527h291zM1178 1051l-308 -527l308 -526h-291l-312 526l312 527h291z" />
    <glyph glyph-name="logicalnot" unicode="&#xac;" horiz-adv-x="1054" 
d="M86 741h809v-571h-256v328h-553v243z" />
    <glyph glyph-name="registered" unicode="&#xae;" horiz-adv-x="1071" 
d="M141 1228q61 102 166 160q104 58 228 58q125 0 229 -58q105 -58 166 -160q61 -101 61 -222q0 -124 -61 -225q-60 -100 -166 -159t-229 -59q-122 0 -228 59t-166 159q-61 101 -61 223q0 123 61 224zM831 1177q-44 79 -123 123q-81 46 -173 46q-93 0 -171 -46
q-79 -46 -122 -123q-45 -79 -45 -176q0 -95 45 -171q44 -75 122 -121q76 -45 171 -45q93 0 173 45q78 44 123 122q46 80 46 173q0 92 -46 173zM551 1239q85 0 135 -43q51 -44 51 -115q0 -46 -22 -80t-66 -55l94 -174h-129l-79 148h-56v-148h-117v467h189zM479 1018h66
q34 0 52 17q19 18 19 46q0 31 -18 47q-19 17 -53 17h-66v-127z" />
    <glyph glyph-name="macron" unicode="&#xaf;" horiz-adv-x="819" 
d="M92 1206v205h637v-205h-637z" />
    <glyph glyph-name="degree" unicode="&#xb0;" horiz-adv-x="892" 
d="M128 1276q48 80 132 125t186 45q101 0 185 -45q83 -44 133 -125q49 -79 49 -176q0 -98 -49 -177q-49 -78 -133 -125q-83 -46 -185 -46q-103 0 -186 46q-85 47 -132 125q-48 79 -48 177q0 96 48 176zM565 1219q-47 47 -119 47q-71 0 -118 -47t-47 -119q0 -71 47 -120
q46 -48 118 -48t119 48q47 49 47 120q0 72 -47 119z" />
    <glyph glyph-name="plusminus" unicode="&#xb1;" horiz-adv-x="1054" 
d="M969 526h-312v-282h312v-244h-883v244h309v282h-309v244h309v328h262v-328h312v-244z" />
    <glyph glyph-name="uni00B2" unicode="&#xb2;" horiz-adv-x="669" 
d="M33 1368q0 127 84 205t209 78q134 0 218 -70q83 -69 83 -182q0 -77 -37 -126q-38 -50 -101 -95l-151 -109h297v-176h-594v166l299 207q37 27 61 59q23 31 23 70q0 36 -27 60t-69 24q-48 0 -75 -30q-28 -31 -28 -89v-6h-192v14z" />
    <glyph glyph-name="uni00B3" unicode="&#xb3;" horiz-adv-x="688" 
d="M133 1586q79 67 215 67q131 0 209 -58q76 -57 76 -149q0 -63 -36 -103t-89 -57q67 -15 106 -58q39 -44 39 -112q0 -108 -84 -171q-83 -62 -231 -62q-150 0 -228 68q-80 69 -81 198h196q6 -98 111 -98q47 0 77 21q29 20 29 58q0 39 -29 59q-30 21 -85 21h-41v129h45
q45 0 74 20q28 19 28 52q0 35 -24 54q-25 20 -66 20q-44 0 -72 -23q-27 -22 -28 -61h-193q5 119 82 185z" />
    <glyph glyph-name="acute" unicode="&#xb4;" horiz-adv-x="819" 
d="M309 1145l150 289h329l-268 -289h-211z" />
    <glyph glyph-name="uni00B5" unicode="&#xb5;" horiz-adv-x="1214" 
d="M389 -410h-289v1463h289v-531q0 -295 213 -295q104 0 164 83q59 81 59 231v512h289v-1053h-258l-22 137q-51 -70 -122 -110q-69 -39 -165 -39q-49 0 -91 16q-46 17 -67 37v-451z" />
    <glyph glyph-name="paragraph" unicode="&#xb6;" horiz-adv-x="1529" 
d="M729 453h-154q-157 0 -278 60q-119 59 -186 172q-66 111 -66 257q0 148 66 259q67 113 186 172q124 61 278 61h429v-1434h-275v453zM1135 1434h274v-1434h-274v1434z" />
    <glyph glyph-name="periodcentered" unicode="&#xb7;" horiz-adv-x="507" 
d="M129 734q50 48 125 48t124 -49q50 -50 50 -123q0 -74 -50 -122t-124 -48q-76 0 -125 48t-49 122q0 76 49 124z" />
    <glyph glyph-name="cedilla" unicode="&#xb8;" horiz-adv-x="819" 
d="M500 66l-33 -127h35q86 0 136 -42t50 -116q0 -88 -60 -139q-61 -52 -163 -52h-244v142h189q59 0 59 51q0 21 -16 33q-17 12 -43 12h-121l59 238h152z" />
    <glyph glyph-name="uni00B9" unicode="&#xb9;" horiz-adv-x="415" 
d="M166 893v442q-15 -6 -39 -6h-127v174h117q23 0 39 22q14 20 14 52v61h188v-745h-192z" />
    <glyph glyph-name="ordmasculine" unicode="&#xba;" horiz-adv-x="870" 
d="M686 869q-94 -91 -252 -91q-156 0 -250 91t-94 243t94 243t250 91q158 0 252 -91t94 -243t-94 -243zM331 983q37 -49 103 -49t106 49t40 129t-40 129t-106 49t-103 -49q-38 -50 -38 -129t38 -129zM92 655h688v-161h-688v161z" />
    <glyph glyph-name="guillemotright" unicode="&#xbb;" horiz-adv-x="1245" 
d="M582 1053h290l312 -527l-312 -526h-290l307 526zM68 1051h290l312 -527l-312 -526h-290l307 526z" />
    <glyph glyph-name="onequarter" unicode="&#xbc;" horiz-adv-x="1384" 
d="M166 688v442q-16 -6 -39 -6h-127v174h117q23 0 39 22q14 20 14 52v62h188v-746h-192zM47 0l907 1434h232l-907 -1434h-232zM1053 745h241v-411h111v-170h-111v-164h-190v164h-352v170zM1104 559l-166 -225h166v225z" />
    <glyph glyph-name="onehalf" unicode="&#xbd;" horiz-adv-x="1447" 
d="M166 688v442q-16 -6 -39 -6h-127v174h117q23 0 39 22q14 20 14 52v62h188v-746h-192zM47 0l907 1434h232l-907 -1434h-232zM825 475q0 127 84 205t209 78q134 0 218 -70q83 -69 83 -182q0 -77 -37 -126q-39 -51 -100 -95l-152 -109h297v-176h-593v166l299 207
q37 27 61 59q23 31 23 70q0 36 -27 60t-70 24q-47 0 -74 -30q-28 -31 -28 -89v-6h-193v14z" />
    <glyph glyph-name="threequarters" unicode="&#xbe;" horiz-adv-x="1656" 
d="M133 1381q79 67 215 67q132 0 209 -57q76 -57 76 -150q0 -61 -36 -102q-37 -42 -89 -58q67 -15 106 -58t39 -112q0 -108 -84 -171q-83 -62 -231 -62q-150 0 -228 68q-80 69 -81 198h196q6 -98 111 -98q47 0 77 21q29 20 29 59q0 38 -29 58q-31 22 -85 22h-41v129h45
q46 0 74 19t28 52q0 36 -24 55q-23 19 -66 19q-44 0 -72 -23q-27 -22 -28 -61h-193q5 119 82 185zM319 0l908 1434h231l-907 -1434h-232zM1325 745h242v-411h110v-170h-110v-164h-191v164h-352v170zM1376 559l-166 -225h166v225z" />
    <glyph glyph-name="questiondown" unicode="&#xbf;" horiz-adv-x="1083" 
d="M681 1162q-47 -46 -122 -46t-122 46q-48 46 -48 118t48 119q49 47 122 47q71 0 121 -47q49 -46 49 -119q0 -72 -48 -118zM986 234q-60 -113 -175 -180q-114 -66 -272 -66q-151 0 -259 49q-110 50 -169 137q-60 88 -60 201q0 133 54 210q53 76 159 148q93 62 130 107
q38 46 38 106v27h270v-58q0 -117 -52 -182q-51 -64 -165 -131q-69 -43 -105 -93q-34 -47 -34 -108q0 -73 52 -119t139 -46q98 0 156 68q59 70 59 181h295q0 -135 -61 -251z" />
    <glyph glyph-name="Agrave" unicode="&#xc0;" horiz-adv-x="1429" 
d="M8 0l524 1434h369l520 -1434h-329l-111 313h-545l-110 -313h-318zM518 561h379l-190 545zM346 1835h330l143 -295h-217z" />
    <glyph glyph-name="Aacute" unicode="&#xc1;" horiz-adv-x="1429" 
d="M8 0l524 1434h369l520 -1434h-329l-111 313h-545l-110 -313h-318zM518 561h379l-190 545zM616 1546l150 289h330l-269 -289h-211z" />
    <glyph glyph-name="Acircumflex" unicode="&#xc2;" horiz-adv-x="1429" 
d="M8 0l524 1434h369l520 -1434h-329l-111 313h-545l-110 -313h-318zM518 561h379l-190 545zM717 1665l-127 -121h-264l262 291h258l262 -291h-266z" />
    <glyph glyph-name="Atilde" unicode="&#xc3;" horiz-adv-x="1429" 
d="M8 0l524 1434h369l520 -1434h-329l-111 313h-545l-110 -313h-318zM518 561h379l-190 545zM583 1633q-20 -25 -20 -56h-168v41q0 93 55 157q53 62 140 62q45 0 72 -13q25 -12 61 -38q27 -21 40 -28q18 -9 40 -9q31 0 49 23q18 22 18 57h168v-43q0 -95 -55 -157t-139 -62
q-47 0 -75 14q-31 15 -62 41q-28 21 -40 27q-16 8 -34 8q-31 0 -50 -24z" />
    <glyph glyph-name="Adieresis" unicode="&#xc4;" horiz-adv-x="1429" 
d="M8 0l524 1434h369l520 -1434h-329l-111 313h-545l-110 -313h-318zM518 561h379l-190 545zM391 1817q44 43 111 43q66 0 109 -43q44 -44 44 -107q0 -62 -44 -106q-43 -43 -109 -43q-67 0 -111 43q-45 43 -45 106q0 64 45 107zM822 1817q43 43 110 43q66 0 110 -43
q45 -43 45 -107q0 -62 -45 -106q-44 -43 -110 -43q-67 0 -110 43q-44 44 -44 106q0 63 44 107z" />
    <glyph glyph-name="Aring" unicode="&#xc5;" horiz-adv-x="1429" 
d="M1421 0h-329l-111 313h-545l-110 -313h-318l516 1409q-78 72 -78 176q0 103 77 175q78 73 190 73q111 0 189 -73q77 -72 77 -175t-72 -170zM628 1670q-34 -34 -34 -85q0 -52 34 -86q35 -35 85 -35t85 35q33 33 33 86q0 52 -33 85q-34 34 -85 34t-85 -34zM518 561h379
l-190 545z" />
    <glyph glyph-name="AE" unicode="&#xc6;" horiz-adv-x="2039" 
d="M1298 264h678v-264h-985v303h-504l-182 -303h-317l839 1434h1127v-265h-656v-321h533v-252h-533v-332zM629 551h362v623z" />
    <glyph glyph-name="Ccedilla" unicode="&#xc7;" horiz-adv-x="1437" 
d="M964 318q84 69 111 194h307q-24 -216 -170 -358q-146 -141 -370 -162l-15 -53h35q87 0 136 -42q51 -43 51 -116q0 -87 -61 -139t-163 -52h-243v142h188q59 0 59 51q0 21 -16 33q-17 12 -43 12h-121l41 164q-194 17 -334 109q-141 93 -216 252q-74 157 -74 364
q0 220 85 384q86 166 243 255q159 90 374 90q168 0 301 -66t215 -184q81 -117 98 -274h-307q-27 124 -111 193q-86 71 -212 71q-172 0 -273 -129q-100 -128 -100 -340q0 -209 100 -339t273 -130q127 0 212 70z" />
    <glyph glyph-name="Egrave" unicode="&#xc8;" horiz-adv-x="1169" 
d="M123 1434h962v-265h-655v-321h533v-252h-533v-332h678v-264h-985v1434zM242 1835h329l144 -295h-217z" />
    <glyph glyph-name="Eacute" unicode="&#xc9;" horiz-adv-x="1169" 
d="M123 1434h962v-265h-655v-321h533v-252h-533v-332h678v-264h-985v1434zM512 1546l150 289h329l-268 -289h-211z" />
    <glyph glyph-name="Ecircumflex" unicode="&#xca;" horiz-adv-x="1169" 
d="M123 1434h962v-265h-655v-321h533v-252h-533v-332h678v-264h-985v1434zM612 1665l-127 -121h-264l262 291h258l263 -291h-267z" />
    <glyph glyph-name="Edieresis" unicode="&#xcb;" horiz-adv-x="1169" 
d="M123 1434h962v-265h-655v-321h533v-252h-533v-332h678v-264h-985v1434zM287 1817q44 43 110 43q67 0 110 -43q44 -44 44 -107q0 -62 -44 -106q-43 -43 -110 -43q-66 0 -110 43q-45 44 -45 106q0 64 45 107zM718 1817q43 43 109 43q67 0 111 -43q45 -43 45 -107
q0 -62 -45 -106q-44 -43 -111 -43q-66 0 -109 43q-44 44 -44 106q0 63 44 107z" />
    <glyph glyph-name="Igrave" unicode="&#xcc;" horiz-adv-x="550" 
d="M123 1434h307v-1434h-307v1434zM-96 1835h329l144 -295h-217z" />
    <glyph glyph-name="Iacute" unicode="&#xcd;" horiz-adv-x="550" 
d="M123 1434h307v-1434h-307v1434zM174 1546l150 289h329l-268 -289h-211z" />
    <glyph glyph-name="Icircumflex" unicode="&#xce;" horiz-adv-x="550" 
d="M123 1434h307v-1434h-307v1434zM274 1665l-127 -121h-264l262 291h258l263 -291h-267z" />
    <glyph glyph-name="Idieresis" unicode="&#xcf;" horiz-adv-x="550" 
d="M123 1434h307v-1434h-307v1434zM-51 1817q44 43 110 43q67 0 110 -43q44 -44 44 -107q0 -62 -44 -106q-43 -43 -110 -43q-66 0 -110 43q-45 44 -45 106q0 64 45 107zM380 1817q43 43 109 43q67 0 111 -43q45 -43 45 -107q0 -62 -45 -106q-44 -43 -111 -43q-66 0 -109 43
q-44 44 -44 106q0 63 44 107z" />
    <glyph glyph-name="Eth" unicode="&#xd0;" horiz-adv-x="1431" 
d="M1033 1342q167 -93 254 -253q89 -164 89 -372t-89 -372q-88 -162 -254 -254q-164 -91 -380 -91h-497v621h-162v213h162v600h497q214 0 380 -92zM955 382q108 126 108 335t-108 335t-302 126h-190v-344h229v-213h-229v-365h190q194 0 302 126z" />
    <glyph glyph-name="Ntilde" unicode="&#xd1;" horiz-adv-x="1433" 
d="M123 0v1434h278l609 -904v904h303v-1434h-281l-608 903v-903h-301zM560 1633q-19 -23 -19 -56h-168v41q0 94 54 157q53 62 140 62q45 0 72 -13q25 -12 61 -38q27 -21 40 -28q18 -9 40 -9q31 0 49 23q19 24 19 57h168v-43q0 -95 -55 -157t-140 -62q-47 0 -75 14
q-31 15 -62 41q-28 21 -40 27q-16 8 -34 8q-30 0 -50 -24z" />
    <glyph glyph-name="Ograve" unicode="&#xd2;" horiz-adv-x="1550" 
d="M1397 343q-90 -167 -252 -261q-161 -94 -369 -94q-207 0 -368 94q-162 94 -252 261t-90 374q0 208 90 374q90 167 252 261q161 94 368 94q208 0 369 -94q162 -94 252 -261q90 -166 90 -374q0 -207 -90 -374zM428 475q50 -108 139 -167q90 -60 209 -60q117 0 207 60
q89 59 139 167q49 105 49 242q0 136 -49 241q-50 108 -139 167q-92 61 -207 61q-118 0 -209 -61q-89 -59 -139 -167q-49 -105 -49 -241q0 -137 49 -242zM406 1835h329l144 -295h-217z" />
    <glyph glyph-name="Oacute" unicode="&#xd3;" horiz-adv-x="1550" 
d="M1397 343q-90 -167 -252 -261q-161 -94 -369 -94q-207 0 -368 94q-162 94 -252 261t-90 374q0 208 90 374q90 167 252 261q161 94 368 94q208 0 369 -94q162 -94 252 -261q90 -166 90 -374q0 -207 -90 -374zM428 475q50 -108 139 -167q90 -60 209 -60q117 0 207 60
q89 59 139 167q49 105 49 242q0 136 -49 241q-50 108 -139 167q-92 61 -207 61q-118 0 -209 -61q-89 -59 -139 -167q-49 -105 -49 -241q0 -137 49 -242zM676 1546l149 289h330l-268 -289h-211z" />
    <glyph glyph-name="Ocircumflex" unicode="&#xd4;" horiz-adv-x="1550" 
d="M1397 343q-90 -167 -252 -261q-161 -94 -369 -94q-207 0 -368 94q-162 94 -252 261t-90 374q0 208 90 374q90 167 252 261q161 94 368 94q208 0 369 -94q162 -94 252 -261q90 -166 90 -374q0 -207 -90 -374zM428 475q50 -108 139 -167q90 -60 209 -60q117 0 207 60
q89 59 139 167q49 105 49 242q0 136 -49 241q-50 108 -139 167q-92 61 -207 61q-118 0 -209 -61q-89 -59 -139 -167q-49 -105 -49 -241q0 -137 49 -242zM776 1665l-127 -121h-264l262 291h258l262 -291h-266z" />
    <glyph glyph-name="Otilde" unicode="&#xd5;" horiz-adv-x="1550" 
d="M1397 343q-90 -167 -252 -261q-161 -94 -369 -94q-207 0 -368 94q-162 94 -252 261t-90 374q0 208 90 374q90 167 252 261q161 94 368 94q208 0 369 -94q162 -94 252 -261q90 -166 90 -374q0 -207 -90 -374zM428 475q50 -108 139 -167q90 -60 209 -60q117 0 207 60
q89 59 139 167q49 105 49 242q0 136 -49 241q-50 108 -139 167q-92 61 -207 61q-118 0 -209 -61q-89 -59 -139 -167q-49 -105 -49 -241q0 -137 49 -242zM642 1633q-19 -23 -19 -56h-168v41q0 94 54 157q53 62 140 62q45 0 72 -13q25 -12 61 -38q27 -21 40 -28q18 -9 40 -9
q31 0 49 23q19 24 19 57h168v-43q0 -93 -56 -157q-55 -62 -139 -62q-47 0 -75 14q-31 15 -62 41q-28 21 -40 27q-16 8 -34 8q-30 0 -50 -24z" />
    <glyph glyph-name="Odieresis" unicode="&#xd6;" horiz-adv-x="1550" 
d="M1397 343q-90 -167 -252 -261q-161 -94 -369 -94q-207 0 -368 94q-162 94 -252 261t-90 374q0 208 90 374q90 167 252 261q161 94 368 94q208 0 369 -94q162 -94 252 -261q90 -166 90 -374q0 -207 -90 -374zM428 475q50 -108 139 -167q90 -60 209 -60q117 0 207 60
q89 59 139 167q49 105 49 242q0 136 -49 241q-50 108 -139 167q-92 61 -207 61q-118 0 -209 -61q-89 -59 -139 -167q-49 -105 -49 -241q0 -137 49 -242zM451 1817q44 43 110 43q67 0 110 -43q44 -44 44 -107q0 -62 -44 -106q-43 -43 -110 -43q-66 0 -110 43q-45 43 -45 106
q0 64 45 107zM882 1817q43 43 109 43q67 0 111 -43q45 -43 45 -107q0 -62 -45 -106q-44 -43 -111 -43q-66 0 -109 43q-44 44 -44 106q0 63 44 107z" />
    <glyph glyph-name="multiply" unicode="&#xd7;" horiz-adv-x="1054" 
d="M256 1032l279 -278l270 272l172 -172l-272 -270l278 -279l-184 -186l-279 280l-272 -272l-170 170l272 272l-278 277z" />
    <glyph glyph-name="Oslash" unicode="&#xd8;" horiz-adv-x="1550" 
d="M1352 1159q135 -190 135 -442q0 -207 -90 -374t-252 -261q-161 -94 -369 -94q-246 0 -430 135l-131 -135l-149 149l133 137q-133 191 -133 443q0 208 90 374q90 167 252 261q161 94 368 94q246 0 430 -137l133 137l148 -148zM418 498l592 610q-94 78 -234 78
q-118 0 -209 -61q-89 -59 -139 -167q-49 -105 -49 -241q0 -114 39 -219zM1133 934l-590 -608q101 -78 233 -78q117 0 207 60q89 59 139 167q49 105 49 242q0 128 -38 217z" />
    <glyph glyph-name="Ugrave" unicode="&#xd9;" horiz-adv-x="1402" 
d="M420 1434v-832q0 -174 67 -262t213 -88q145 0 214 88q69 89 69 262v832h307v-816q0 -306 -150 -468t-440 -162q-288 0 -438 162q-149 161 -149 468v816h307zM332 1835h330l143 -295h-217z" />
    <glyph glyph-name="Uacute" unicode="&#xda;" horiz-adv-x="1402" 
d="M420 1434v-832q0 -174 67 -262t213 -88q145 0 214 88q69 89 69 262v832h307v-816q0 -306 -150 -468t-440 -162q-288 0 -438 162q-149 161 -149 468v816h307zM602 1546l150 289h329l-268 -289h-211z" />
    <glyph glyph-name="Ucircumflex" unicode="&#xdb;" horiz-adv-x="1402" 
d="M420 1434v-832q0 -174 67 -262t213 -88q145 0 214 88q69 89 69 262v832h307v-816q0 -306 -150 -468t-440 -162q-288 0 -438 162q-149 161 -149 468v816h307zM702 1665l-127 -121h-264l262 291h258l263 -291h-267z" />
    <glyph glyph-name="Udieresis" unicode="&#xdc;" horiz-adv-x="1402" 
d="M420 1434v-832q0 -174 67 -262t213 -88q145 0 214 88q69 89 69 262v832h307v-816q0 -306 -150 -468t-440 -162q-288 0 -438 162q-149 161 -149 468v816h307zM377 1817q44 43 110 43q67 0 110 -43q44 -44 44 -107q0 -62 -44 -106q-43 -43 -110 -43q-66 0 -110 43
q-45 44 -45 106q0 64 45 107zM808 1817q43 43 110 43q66 0 110 -43q45 -43 45 -107q0 -62 -45 -106q-44 -43 -110 -43q-67 0 -110 43q-44 44 -44 106q0 63 44 107z" />
    <glyph glyph-name="Yacute" unicode="&#xdd;" horiz-adv-x="1359" 
d="M0 1434h358l322 -588l338 588h342l-526 -902v-532h-308v532zM588 1546l149 289h330l-268 -289h-211z" />
    <glyph glyph-name="Thorn" unicode="&#xde;" horiz-adv-x="1275" 
d="M430 1434v-222h246q255 0 403 -128t148 -349q0 -220 -149 -348q-148 -127 -400 -127h-248v-260h-307v1434h307zM430 516h238q115 0 181 57t66 162t-66 163q-65 58 -179 58h-240v-440z" />
    <glyph glyph-name="germandbls" unicode="&#xdf;" horiz-adv-x="1275" 
d="M530 23v213q84 -29 177 -29q99 0 164 54t65 147q0 100 -77 154q-76 54 -206 54q-23 0 -63 -4v215q125 0 186 58q60 57 60 143t-56 136t-151 50q-98 0 -158 -60q-59 -59 -59 -159v-995h-289v981q0 229 143 347t365 118q146 0 260 -47q111 -46 175 -134q62 -86 62 -202
q-2 -108 -56 -190q-52 -79 -140 -117q295 -84 295 -353q0 -129 -63 -223t-170 -142q-109 -49 -242 -50q-125 2 -222 35z" />
    <glyph glyph-name="agrave" unicode="&#xe0;" horiz-adv-x="1148" 
d="M1137 244v-244h-148q-99 0 -147.5 43t-46.5 129q-57 -90 -142 -137t-202 -47q-176 0 -284 81t-108 228q0 168 124 259t360 91h209v51q0 71 -54 114q-52 42 -143 42q-79 0 -131 -35t-62 -94h-278q15 163 143 251q130 89 342 89q225 0 345 -98q122 -99 122 -285v-371
q0 -38 17 -53q15 -14 51 -14h33zM752 455h-211q-91 0 -141 -36t-50 -102q0 -55 42 -88q41 -32 114 -32q113 0 178 64q66 65 68 173v21zM197 1454h329l144 -295h-217z" />
    <glyph glyph-name="aacute" unicode="&#xe1;" horiz-adv-x="1148" 
d="M1137 244v-244h-148q-99 0 -147.5 43t-46.5 129q-57 -90 -142 -137t-202 -47q-176 0 -284 81t-108 228q0 168 124 259t360 91h209v51q0 71 -54 114q-52 42 -143 42q-79 0 -131 -35t-62 -94h-278q15 163 143 251q130 89 342 89q225 0 345 -98q122 -99 122 -285v-371
q0 -38 17 -53q15 -14 51 -14h33zM752 455h-211q-91 0 -141 -36t-50 -102q0 -55 42 -88q41 -32 114 -32q113 0 178 64q66 65 68 173v21zM467 1165l149 289h330l-268 -289h-211z" />
    <glyph glyph-name="acircumflex" unicode="&#xe2;" horiz-adv-x="1148" 
d="M1137 244v-244h-148q-99 0 -147.5 43t-46.5 129q-57 -90 -142 -137t-202 -47q-176 0 -284 81t-108 228q0 168 124 259t360 91h209v51q0 71 -54 114q-52 42 -143 42q-79 0 -131 -35t-62 -94h-278q15 163 143 251q130 89 342 89q225 0 345 -98q122 -99 122 -285v-371
q0 -38 17 -53q15 -14 51 -14h33zM752 455h-211q-91 0 -141 -36t-50 -102q0 -55 42 -88q41 -32 114 -32q113 0 178 64q66 65 68 173v21zM567 1284l-127 -121h-264l262 291h258l262 -291h-266z" />
    <glyph glyph-name="atilde" unicode="&#xe3;" horiz-adv-x="1148" 
d="M1137 244v-244h-148q-99 0 -147.5 43t-46.5 129q-57 -90 -142 -137t-202 -47q-176 0 -284 81t-108 228q0 168 124 259t360 91h209v51q0 71 -54 114q-52 42 -143 42q-79 0 -131 -35t-62 -94h-278q15 163 143 251q130 89 342 89q225 0 345 -98q122 -99 122 -285v-371
q0 -38 17 -53q15 -14 51 -14h33zM752 455h-211q-91 0 -141 -36t-50 -102q0 -55 42 -88q41 -32 114 -32q113 0 178 64q66 65 68 173v21zM433 1252q-19 -23 -19 -56h-168v41q0 94 54 157q53 62 140 62q45 0 72 -13q25 -12 61 -38q27 -21 40 -28q18 -9 40 -9q31 0 49 23
q19 24 19 57h168v-43q0 -95 -55 -157t-140 -62q-46 0 -74 14q-33 17 -63 41q-28 21 -40 27q-16 8 -34 8q-31 0 -50 -24z" />
    <glyph glyph-name="adieresis" unicode="&#xe4;" horiz-adv-x="1148" 
d="M1137 244v-244h-148q-99 0 -147.5 43t-46.5 129q-57 -90 -142 -137t-202 -47q-176 0 -284 81t-108 228q0 168 124 259t360 91h209v51q0 71 -54 114q-52 42 -143 42q-79 0 -131 -35t-62 -94h-278q15 163 143 251q130 89 342 89q225 0 345 -98q122 -99 122 -285v-371
q0 -38 17 -53q15 -14 51 -14h33zM752 455h-211q-91 0 -141 -36t-50 -102q0 -55 42 -88q41 -32 114 -32q113 0 178 64q66 65 68 173v21zM242 1436q44 43 110 43q67 0 110 -43q44 -44 44 -107q0 -62 -44 -106q-43 -43 -110 -43q-66 0 -110 43q-45 43 -45 106t45 107zM673 1436
q43 43 109 43q67 0 111 -43q45 -43 45 -107q0 -63 -45 -106q-44 -43 -111 -43q-66 0 -109 43q-44 44 -44 106q0 63 44 107z" />
    <glyph glyph-name="aring" unicode="&#xe5;" horiz-adv-x="1148" 
d="M1137 244v-244h-148q-99 0 -147.5 43t-46.5 129q-57 -90 -142 -137t-202 -47q-176 0 -284 81t-108 228q0 168 124 259t360 91h209v51q0 71 -54 114q-52 42 -143 42q-79 0 -131 -35t-62 -94h-278q15 163 143 251q130 89 342 89q225 0 345 -98q122 -99 122 -285v-371
q0 -38 17 -53q15 -14 51 -14h33zM752 455h-211q-91 0 -141 -36t-50 -102q0 -55 42 -88q41 -32 114 -32q113 0 178 64q66 65 68 173v21zM378 1555q78 73 189 73q112 0 190 -73q77 -72 77 -175q0 -104 -77 -176q-75 -71 -190 -71q-114 0 -189 71q-77 72 -77 176q0 103 77 175z
M652 1465q-34 34 -85 34t-85 -34q-33 -33 -33 -85q0 -53 33 -86q34 -34 85 -34t85 34t34 86q0 51 -34 85z" />
    <glyph glyph-name="ae" unicode="&#xe6;" horiz-adv-x="1863" 
d="M1034 461v-8q11 -118 73 -182q63 -64 175 -64q85 0 144 38q58 37 79 111h285q-16 -103 -80 -188q-63 -84 -168 -132t-239 -48q-142 0 -251 50q-107 49 -173 144q-71 -98 -173 -146t-241 -48q-178 0 -291 82q-115 83 -115 227q0 163 124 248q125 86 360 86h209v67
q0 71 -54 114q-52 42 -143 42q-79 0 -131 -35t-62 -94h-278q15 163 143 251q130 89 342 89q117 0 215 -37q100 -38 152 -106q62 68 149 106q84 37 189 37q155 0 275 -63q121 -63 188 -177q67 -113 67 -266q0 -52 -8 -98h-762zM1117 796q-65 -54 -77 -147h476q-15 97 -78 149
q-62 52 -162 52q-94 0 -159 -54zM752 446h-199q-99 0 -150 -32q-53 -33 -53 -97q0 -55 42 -88q41 -32 114 -32q114 0 179 61q67 62 67 164v24z" />
    <glyph glyph-name="ccedilla" unicode="&#xe7;" horiz-adv-x="1167" 
d="M742 270q56 46 73 129h297q-27 -173 -139 -281q-113 -108 -295 -126l-14 -53h34q88 0 137 -42q50 -42 50 -116q0 -87 -61 -139t-162 -52h-244v142h188q60 0 60 51q0 21 -17 33t-43 12h-121l41 164q-218 23 -342 166q-125 145 -125 368q0 161 67 284t190 188
q126 67 288 67q210 0 344 -108q134 -109 164 -298h-299q-18 77 -74 124q-55 46 -137 46q-112 0 -180 -84q-68 -85 -68 -219t68 -219q68 -84 180 -84q82 0 140 47z" />
    <glyph glyph-name="egrave" unicode="&#xe8;" horiz-adv-x="1189" 
d="M126 810q66 122 186 188q122 67 278 67q160 0 281 -63q123 -64 191 -176q70 -115 71 -267q0 -46 -9 -98h-764v-8q11 -115 74 -181q62 -65 174 -65q88 0 147 38q58 37 76 111h285q-16 -103 -80 -188q-63 -84 -168 -132t-239 -48q-178 0 -304 65q-128 66 -197 188t-69 283
q0 163 67 286zM844 649q-15 97 -79 149t-163 52q-94 0 -159 -54q-64 -53 -76 -147h477zM217 1454h330l143 -295h-217z" />
    <glyph glyph-name="eacute" unicode="&#xe9;" horiz-adv-x="1189" 
d="M126 810q66 122 186 188q122 67 278 67q160 0 281 -63q123 -64 191 -176q70 -115 71 -267q0 -46 -9 -98h-764v-8q11 -115 74 -181q62 -65 174 -65q88 0 147 38q58 37 76 111h285q-16 -103 -80 -188q-63 -84 -168 -132t-239 -48q-178 0 -304 65q-128 66 -197 188t-69 283
q0 163 67 286zM844 649q-15 97 -79 149t-163 52q-94 0 -159 -54q-64 -53 -76 -147h477zM487 1165l150 289h330l-269 -289h-211z" />
    <glyph glyph-name="ecircumflex" unicode="&#xea;" horiz-adv-x="1189" 
d="M126 810q66 122 186 188q122 67 278 67q160 0 281 -63q123 -64 191 -176q70 -115 71 -267q0 -46 -9 -98h-764v-8q11 -115 74 -181q62 -65 174 -65q88 0 147 38q58 37 76 111h285q-16 -103 -80 -188q-63 -84 -168 -132t-239 -48q-178 0 -304 65q-128 66 -197 188t-69 283
q0 163 67 286zM844 649q-15 97 -79 149t-163 52q-94 0 -159 -54q-64 -53 -76 -147h477zM588 1284l-127 -121h-264l262 291h258l262 -291h-266z" />
    <glyph glyph-name="edieresis" unicode="&#xeb;" horiz-adv-x="1189" 
d="M126 810q66 122 186 188q122 67 278 67q160 0 281 -63q123 -64 191 -176q70 -115 71 -267q0 -46 -9 -98h-764v-8q11 -115 74 -181q62 -65 174 -65q88 0 147 38q58 37 76 111h285q-16 -103 -80 -188q-63 -84 -168 -132t-239 -48q-178 0 -304 65q-128 66 -197 188t-69 283
q0 163 67 286zM844 649q-15 97 -79 149t-163 52q-94 0 -159 -54q-64 -53 -76 -147h477zM262 1436q44 43 111 43q66 0 109 -43q44 -44 44 -107q0 -62 -44 -106q-43 -43 -109 -43q-67 0 -111 43q-45 43 -45 106t45 107zM693 1436q43 43 110 43q66 0 110 -43q45 -43 45 -107
q0 -63 -45 -106q-44 -43 -110 -43q-67 0 -110 43q-44 44 -44 106q0 63 44 107z" />
    <glyph glyph-name="igrave" unicode="&#xec;" horiz-adv-x="489" 
d="M100 1053h291v-1053h-291v1053zM-125 1454h330l143 -295h-217z" />
    <glyph glyph-name="iacute" unicode="&#xed;" horiz-adv-x="489" 
d="M100 1053h291v-1053h-291v1053zM145 1165l150 289h330l-269 -289h-211z" />
    <glyph glyph-name="icircumflex" unicode="&#xee;" horiz-adv-x="489" 
d="M100 1053h291v-1053h-291v1053zM246 1284l-127 -121h-264l262 291h258l262 -291h-266z" />
    <glyph glyph-name="idieresis" unicode="&#xef;" horiz-adv-x="489" 
d="M100 1053h291v-1053h-291v1053zM-80 1436q44 43 111 43q66 0 109 -43q44 -44 44 -107q0 -62 -44 -106q-43 -43 -109 -43q-67 0 -111 43q-45 43 -45 106t45 107zM351 1436q43 43 110 43q66 0 110 -43q45 -43 45 -107q0 -63 -45 -106q-44 -43 -110 -43q-67 0 -110 43
q-44 44 -44 106q0 63 44 107z" />
    <glyph glyph-name="eth" unicode="&#xf0;" horiz-adv-x="1241" 
d="M1074 924q87 -164 87 -365q0 -163 -61 -291t-188 -205q-124 -75 -310 -75q-163 0 -286 62q-125 63 -190 173q-67 113 -67 250q0 147 68 250t176 154t234 51q86 0 155 -24q73 -25 148 -83q-62 142 -219 266l-234 -137l-92 156l156 92q-60 35 -197 100l164 148
q123 -45 254 -119l229 135l92 -155l-159 -95q153 -124 240 -288zM793 291q71 71 71 188q0 113 -73 180q-74 68 -189 68q-110 0 -179 -72t-69 -184q0 -113 69 -182q70 -70 179 -70q119 0 191 72z" />
    <glyph glyph-name="ntilde" unicode="&#xf1;" horiz-adv-x="1208" 
d="M1008 950q118 -114 118 -379v-571h-288v555q0 272 -213 272q-114 0 -174 -75q-62 -77 -62 -213v-539h-289v1053h252l27 -131q56 68 133 105q79 38 193 38q183 0 303 -115zM525 1252q-19 -23 -19 -56h-168v41q0 94 54 157q53 62 140 62q45 0 72 -13q28 -13 62 -38
q27 -21 40 -28q18 -9 39 -9q32 0 50 23t18 57h168v-43q0 -95 -55 -157t-140 -62q-46 0 -74 14q-33 17 -63 41q-28 21 -40 27q-16 8 -34 8q-31 0 -50 -24z" />
    <glyph glyph-name="ograve" unicode="&#xf2;" 
d="M323 54q-125 66 -195 190q-69 123 -69 282q0 160 69 283t195 189q128 67 291 67q164 0 292 -67q126 -66 195 -189q68 -121 68 -283q0 -163 -68 -283q-70 -124 -195 -189q-126 -66 -292 -66q-165 0 -291 66zM806 307q71 85 71 219t-71 219q-70 84 -192 84q-118 0 -189 -84
q-71 -85 -71 -219t71 -219q71 -84 189 -84q122 0 192 84zM244 1454h329l144 -295h-217z" />
    <glyph glyph-name="oacute" unicode="&#xf3;" 
d="M323 54q-125 66 -195 190q-69 123 -69 282q0 160 69 283t195 189q128 67 291 67q164 0 292 -67q126 -66 195 -189q68 -121 68 -283q0 -163 -68 -283q-70 -124 -195 -189q-126 -66 -292 -66q-165 0 -291 66zM806 307q71 85 71 219t-71 219q-70 84 -192 84q-118 0 -189 -84
q-71 -85 -71 -219t71 -219q71 -84 189 -84q122 0 192 84zM514 1165l150 289h329l-268 -289h-211z" />
    <glyph glyph-name="ocircumflex" unicode="&#xf4;" 
d="M323 54q-125 66 -195 190q-69 123 -69 282q0 160 69 283t195 189q128 67 291 67q164 0 292 -67q126 -66 195 -189q68 -121 68 -283q0 -163 -68 -283q-70 -124 -195 -189q-126 -66 -292 -66q-165 0 -291 66zM806 307q71 85 71 219t-71 219q-70 84 -192 84q-118 0 -189 -84
q-71 -85 -71 -219t71 -219q71 -84 189 -84q122 0 192 84zM614 1284l-127 -121h-264l262 291h258l263 -291h-267z" />
    <glyph glyph-name="otilde" unicode="&#xf5;" 
d="M323 54q-125 66 -195 190q-69 123 -69 282q0 160 69 283t195 189q128 67 291 67q164 0 292 -67q126 -66 195 -189q68 -121 68 -283q0 -163 -68 -283q-70 -124 -195 -189q-126 -66 -292 -66q-165 0 -291 66zM806 307q71 85 71 219t-71 219q-70 84 -192 84q-118 0 -189 -84
q-71 -85 -71 -219t71 -219q71 -84 189 -84q122 0 192 84zM480 1252q-19 -23 -19 -56h-168v41q0 94 54 157q53 62 140 62q45 0 72 -13q28 -13 62 -38q28 -23 39 -28q18 -9 40 -9q32 0 50 23t18 57h168v-43q0 -95 -55 -157t-140 -62q-46 0 -74 14q-33 17 -63 41q-28 21 -40 27
q-16 8 -34 8q-30 0 -50 -24z" />
    <glyph glyph-name="odieresis" unicode="&#xf6;" 
d="M323 54q-125 66 -195 190q-69 123 -69 282q0 160 69 283t195 189q128 67 291 67q164 0 292 -67q126 -66 195 -189q68 -121 68 -283q0 -163 -68 -283q-70 -124 -195 -189q-126 -66 -292 -66q-165 0 -291 66zM806 307q71 85 71 219t-71 219q-70 84 -192 84q-118 0 -189 -84
q-71 -85 -71 -219t71 -219q71 -84 189 -84q122 0 192 84zM289 1436q44 43 110 43q67 0 110 -43q44 -44 44 -107q0 -62 -44 -106q-43 -43 -110 -43q-66 0 -110 43q-45 43 -45 106t45 107zM720 1436q43 43 109 43q67 0 111 -43q45 -43 45 -107q0 -63 -45 -106
q-44 -43 -111 -43q-66 0 -109 43q-44 44 -44 106q0 63 44 107z" />
    <glyph glyph-name="divide" unicode="&#xf7;" horiz-adv-x="1054" 
d="M409 1092q49 47 119 47q71 0 120 -47q48 -46 48 -119q0 -71 -48 -117q-49 -47 -120 -47q-70 0 -119 47t-49 117q0 72 49 119zM86 461v244h883v-244h-883zM409 332q49 47 119 47q71 0 120 -47q48 -46 48 -119q0 -71 -48 -117q-49 -47 -120 -47q-70 0 -119 47t-49 117
q0 72 49 119z" />
    <glyph glyph-name="oslash" unicode="&#xf8;" 
d="M1079 844q90 -135 90 -320q0 -161 -68 -281q-70 -124 -195 -189q-126 -66 -294 -66q-193 0 -327 88l-90 -88l-136 133l91 86q-91 132 -91 317q0 162 69 284q69 121 194 189t290 68q196 0 330 -88l92 88l135 -133zM356 410l402 387q-61 41 -146 41q-125 0 -197 -87
q-73 -88 -73 -227q0 -57 14 -114zM868 641l-399 -387q62 -39 143 -39q125 0 199 86t74 223q0 60 -17 117z" />
    <glyph glyph-name="ugrave" unicode="&#xf9;" horiz-adv-x="1191" 
d="M1092 1053v-1053h-256l-27 127q-53 -63 -129 -102q-73 -37 -180 -37q-185 0 -301 113q-117 114 -117 380v572h289v-537q0 -143 50 -216t154 -73q108 0 168 81t60 227v518h289zM217 1454h330l143 -295h-217z" />
    <glyph glyph-name="uacute" unicode="&#xfa;" horiz-adv-x="1191" 
d="M1092 1053v-1053h-256l-27 127q-53 -63 -129 -102q-73 -37 -180 -37q-185 0 -301 113q-117 114 -117 380v572h289v-537q0 -143 50 -216t154 -73q108 0 168 81t60 227v518h289zM487 1165l150 289h330l-269 -289h-211z" />
    <glyph glyph-name="ucircumflex" unicode="&#xfb;" horiz-adv-x="1191" 
d="M1092 1053v-1053h-256l-27 127q-53 -63 -129 -102q-73 -37 -180 -37q-185 0 -301 113q-117 114 -117 380v572h289v-537q0 -143 50 -216t154 -73q108 0 168 81t60 227v518h289zM588 1284l-127 -121h-264l262 291h258l262 -291h-266z" />
    <glyph glyph-name="udieresis" unicode="&#xfc;" horiz-adv-x="1191" 
d="M1092 1053v-1053h-256l-27 127q-53 -63 -129 -102q-73 -37 -180 -37q-185 0 -301 113q-117 114 -117 380v572h289v-537q0 -143 50 -216t154 -73q108 0 168 81t60 227v518h289zM262 1436q44 43 111 43q66 0 109 -43q44 -44 44 -107q0 -62 -44 -106q-43 -43 -109 -43
q-67 0 -111 43q-45 43 -45 106t45 107zM693 1436q43 43 110 43q66 0 110 -43q45 -43 45 -107q0 -63 -45 -106q-44 -43 -110 -43q-67 0 -110 43q-44 44 -44 106q0 63 44 107z" />
    <glyph glyph-name="yacute" unicode="&#xfd;" horiz-adv-x="1118" 
d="M305 1053l256 -756l250 756h309l-467 -1203q-40 -103 -69 -150q-34 -55 -83 -82q-51 -28 -130 -28h-281v244h160q55 0 80 19q24 18 47 71l26 70l-405 1059h307zM455 1165l149 289h330l-268 -289h-211z" />
    <glyph glyph-name="thorn" unicode="&#xfe;" horiz-adv-x="1253" 
d="M379 1434v-529q56 74 137 117q82 43 193 43q139 0 250 -67q110 -66 173 -189q62 -121 62 -285q0 -162 -62 -282q-63 -122 -174 -188t-251 -66q-107 0 -187 39t-131 108v-545h-289v1844h279zM829 746q-72 83 -188 83q-117 0 -186 -83q-70 -84 -70 -218q0 -136 70 -221
q69 -84 186 -84q116 0 188 85q72 86 72 220q0 136 -72 218z" />
    <glyph glyph-name="ydieresis" unicode="&#xff;" horiz-adv-x="1118" 
d="M305 1053l256 -756l250 756h309l-467 -1203q-40 -103 -69 -150q-34 -55 -83 -82q-51 -28 -130 -28h-281v244h160q55 0 80 19q24 18 47 71l26 70l-405 1059h307zM229 1436q44 43 111 43t110 -43q44 -44 44 -107q0 -62 -44 -106q-43 -43 -110 -43t-111 43q-45 43 -45 106
t45 107zM660 1436q43 43 110 43t111 -43q45 -43 45 -107q0 -63 -45 -106q-44 -43 -111 -43t-110 43q-44 44 -44 106q0 63 44 107z" />
    <glyph glyph-name="Amacron" unicode="&#x100;" horiz-adv-x="1429" 
d="M8 0l524 1434h369l520 -1434h-329l-111 313h-545l-110 -313h-318zM518 561h379l-190 545zM399 1608v204h637v-204h-637z" />
    <glyph glyph-name="amacron" unicode="&#x101;" horiz-adv-x="1148" 
d="M1137 244v-244h-148q-99 0 -147.5 43t-46.5 129q-57 -90 -142 -137t-202 -47q-176 0 -284 81t-108 228q0 168 124 259t360 91h209v51q0 71 -54 114q-52 42 -143 42q-79 0 -131 -35t-62 -94h-278q15 163 143 251q130 89 342 89q225 0 345 -98q122 -99 122 -285v-371
q0 -38 17 -53q15 -14 51 -14h33zM752 455h-211q-91 0 -141 -36t-50 -102q0 -55 42 -88q41 -32 114 -32q113 0 178 64q66 65 68 173v21zM250 1227v205h637v-205h-637z" />
    <glyph glyph-name="Abreve" unicode="&#x102;" horiz-adv-x="1429" 
d="M8 0l524 1434h369l520 -1434h-329l-111 313h-545l-110 -313h-318zM518 561h379l-190 545zM604 1835q0 -53 31 -84t82 -31q49 0 81 32q31 31 31 83h207q-6 -135 -95 -218t-230 -83q-136 0 -222 83t-92 218h207z" />
    <glyph glyph-name="abreve" unicode="&#x103;" horiz-adv-x="1148" 
d="M1137 244v-244h-148q-99 0 -147.5 43t-46.5 129q-57 -90 -142 -137t-202 -47q-176 0 -284 81t-108 228q0 168 124 259t360 91h209v51q0 71 -54 114q-52 42 -143 42q-79 0 -131 -35t-62 -94h-278q15 163 143 251q130 89 342 89q225 0 345 -98q122 -99 122 -285v-371
q0 -38 17 -53q15 -14 51 -14h33zM752 455h-211q-91 0 -141 -36t-50 -102q0 -55 42 -88q41 -32 114 -32q113 0 178 64q66 65 68 173v21zM455 1454q0 -54 30 -84q31 -31 82 -31q49 0 81 32t32 83h207q-6 -135 -95 -218t-231 -83q-135 0 -221 83t-92 218h207z" />
    <glyph glyph-name="Aogonek" unicode="&#x104;" horiz-adv-x="1429" 
d="M1425 -217v-193h-184q-104 0 -174 55t-70 144q0 116 115 211h-20l-111 313h-545l-110 -313h-318l524 1434h369l520 -1434q-98 -44 -145 -83q-49 -40 -49 -81q0 -53 67 -53h131zM518 561h379l-190 545z" />
    <glyph glyph-name="aogonek" unicode="&#x105;" horiz-adv-x="1148" 
d="M1141 -217v-193h-185q-104 0 -174 55q-69 54 -69 144q0 72 39 129q41 60 110 109q-71 43 -67 145q-57 -90 -142 -137t-202 -47q-176 0 -284 81t-108 228q0 168 124 259t360 91h209v51q0 71 -54 114q-52 42 -143 42q-79 0 -131 -35t-62 -94h-278q15 163 143 251
q130 89 342 89q225 0 345 -98q122 -99 122 -285v-371q0 -38 17 -53q15 -14 51 -14h33v-244q-100 -45 -146 -83q-49 -40 -49 -81q0 -53 68 -53h131zM752 455h-211q-91 0 -141 -36t-50 -102q0 -55 42 -88q41 -32 114 -32q113 0 178 64q66 65 68 173v21z" />
    <glyph glyph-name="Cacute" unicode="&#x106;" horiz-adv-x="1437" 
d="M151 1101q86 166 243 255q159 90 374 90q168 0 301 -66t215 -184q81 -117 98 -274h-307q-27 124 -111 193q-86 71 -212 71q-172 0 -273 -129q-100 -128 -100 -340q0 -209 100 -339t273 -130q127 0 212 70q84 69 111 194h307q-17 -157 -98 -274q-84 -120 -215 -185
t-301 -65q-215 0 -374 90q-157 89 -243 255q-85 164 -85 384t85 384zM668 1546l149 289h330l-268 -289h-211z" />
    <glyph glyph-name="cacute" unicode="&#x107;" horiz-adv-x="1167" 
d="M949 97q-133 -109 -347 -109q-164 0 -287 66q-122 66 -189 190q-67 125 -67 282q0 161 67 284t190 188q126 67 288 67q210 0 344 -108q134 -109 164 -298h-299q-18 77 -74 124q-55 46 -137 46q-112 0 -180 -84q-68 -85 -68 -219t68 -219q68 -84 180 -84q82 0 140 47
q56 46 73 129h297q-28 -192 -163 -302zM508 1165l149 289h330l-268 -289h-211z" />
    <glyph glyph-name="Ccircumflex" unicode="&#x108;" horiz-adv-x="1437" 
d="M151 1101q86 166 243 255q159 90 374 90q168 0 301 -66t215 -184q81 -117 98 -274h-307q-27 124 -111 193q-86 71 -212 71q-172 0 -273 -129q-100 -128 -100 -340q0 -209 100 -339t273 -130q127 0 212 70q84 69 111 194h307q-17 -157 -98 -274q-84 -120 -215 -185
t-301 -65q-215 0 -374 90q-157 89 -243 255q-85 164 -85 384t85 384zM768 1665l-127 -121h-264l262 291h258l262 -291h-266z" />
    <glyph glyph-name="ccircumflex" unicode="&#x109;" horiz-adv-x="1167" 
d="M949 97q-133 -109 -347 -109q-164 0 -287 66q-122 66 -189 190q-67 125 -67 282q0 161 67 284t190 188q126 67 288 67q210 0 344 -108q134 -109 164 -298h-299q-18 77 -74 124q-55 46 -137 46q-112 0 -180 -84q-68 -85 -68 -219t68 -219q68 -84 180 -84q82 0 140 47
q56 46 73 129h297q-28 -192 -163 -302zM608 1284l-127 -121h-264l262 291h258l262 -291h-266z" />
    <glyph glyph-name="Cdotaccent" unicode="&#x10a;" horiz-adv-x="1437" 
d="M151 1101q86 166 243 255q159 90 374 90q168 0 301 -66t215 -184q81 -117 98 -274h-307q-27 124 -111 193q-86 71 -212 71q-172 0 -273 -129q-100 -128 -100 -340q0 -209 100 -339t273 -130q127 0 212 70q84 69 111 194h307q-17 -157 -98 -274q-84 -120 -215 -185
t-301 -65q-215 0 -374 90q-157 89 -243 255q-85 164 -85 384t85 384zM649 1846q46 46 119 46t119 -46q47 -47 47 -115q0 -69 -47 -116q-46 -46 -119 -46t-119 46q-47 47 -47 116q0 68 47 115z" />
    <glyph glyph-name="cdotaccent" unicode="&#x10b;" horiz-adv-x="1167" 
d="M949 97q-133 -109 -347 -109q-164 0 -287 66q-122 66 -189 190q-67 125 -67 282q0 161 67 284t190 188q126 67 288 67q210 0 344 -108q134 -109 164 -298h-299q-18 77 -74 124q-55 46 -137 46q-112 0 -180 -84q-68 -85 -68 -219t68 -219q68 -84 180 -84q82 0 140 47
q56 46 73 129h297q-28 -192 -163 -302zM489 1465q46 46 119 46t119 -46q47 -47 47 -115q0 -69 -47 -116q-46 -46 -119 -46t-119 46q-47 47 -47 116q0 68 47 115z" />
    <glyph glyph-name="Ccaron" unicode="&#x10c;" horiz-adv-x="1437" 
d="M151 1101q86 166 243 255q159 90 374 90q168 0 301 -66t215 -184q81 -117 98 -274h-307q-27 124 -111 193q-86 71 -212 71q-172 0 -273 -129q-100 -128 -100 -340q0 -209 100 -339t273 -130q127 0 212 70q84 69 111 194h307q-17 -157 -98 -274q-84 -120 -215 -185
t-301 -65q-215 0 -374 90q-157 89 -243 255q-85 164 -85 384t85 384zM768 1714l127 121h264l-262 -291h-258l-262 291h266z" />
    <glyph glyph-name="ccaron" unicode="&#x10d;" horiz-adv-x="1167" 
d="M949 97q-133 -109 -347 -109q-164 0 -287 66q-122 66 -189 190q-67 125 -67 282q0 161 67 284t190 188q126 67 288 67q210 0 344 -108q134 -109 164 -298h-299q-18 77 -74 124q-55 46 -137 46q-112 0 -180 -84q-68 -85 -68 -219t68 -219q68 -84 180 -84q82 0 140 47
q56 46 73 129h297q-28 -192 -163 -302zM608 1333l127 121h264l-262 -291h-258l-262 291h266z" />
    <glyph glyph-name="Dcaron" unicode="&#x10e;" horiz-adv-x="1409" 
d="M123 1434h498q213 0 379 -92q167 -93 254 -253q89 -164 89 -372t-89 -372q-88 -162 -254 -254q-164 -91 -379 -91h-498v1434zM621 256q194 0 302 126q107 125 107 335t-107 335q-108 126 -302 126h-191v-922h191zM676 1714l127 121h264l-262 -291h-258l-262 291h266z" />
    <glyph glyph-name="dcaron" unicode="&#x10f;" horiz-adv-x="1390" 
d="M1153 1434v-1434h-252l-29 145q-121 -157 -327 -157q-139 0 -250 66q-109 65 -173 190q-63 123 -63 284q0 160 63 282t174 188q113 67 251 67q205 0 317 -143v512h289zM799 306q69 82 69 218q0 137 -69 221t-187 84q-116 0 -187 -84q-71 -85 -71 -219t71 -219
q71 -84 187 -84q118 0 187 83zM1294 1434h271l-140 -304h-202z" />
    <glyph glyph-name="Dcroat" unicode="&#x110;" horiz-adv-x="1441" 
d="M1033 1342q167 -93 254 -253q89 -164 89 -372t-89 -372q-88 -162 -254 -254q-164 -91 -380 -91h-497v621h-162v213h162v600h497q214 0 380 -92zM955 382q108 126 108 335t-108 335t-302 126h-190v-344h229v-213h-229v-365h190q194 0 302 126z" />
    <glyph glyph-name="dcroat" unicode="&#x111;" horiz-adv-x="1273" 
d="M1307 1122h-154v-1122h-252l-29 145q-121 -157 -327 -157q-139 0 -250 66q-109 65 -173 190q-63 123 -63 284q0 160 63 282t174 188q113 67 251 67q205 0 317 -143v200h-280v211h280v101h289v-101h154v-211zM799 306q69 82 69 218q0 137 -69 221t-187 84q-116 0 -187 -84
q-71 -85 -71 -219t71 -219q71 -84 187 -84q118 0 187 83z" />
    <glyph glyph-name="Emacron" unicode="&#x112;" horiz-adv-x="1169" 
d="M123 1434h962v-265h-655v-321h533v-252h-533v-332h678v-264h-985v1434zM295 1608v204h637v-204h-637z" />
    <glyph glyph-name="emacron" unicode="&#x113;" horiz-adv-x="1189" 
d="M126 810q66 122 186 188q122 67 278 67q160 0 281 -63q123 -64 191 -176q70 -115 71 -267q0 -46 -9 -98h-764v-8q11 -115 74 -181q62 -65 174 -65q88 0 147 38q58 37 76 111h285q-16 -103 -80 -188q-63 -84 -168 -132t-239 -48q-178 0 -304 65q-128 66 -197 188t-69 283
q0 163 67 286zM844 649q-15 97 -79 149t-163 52q-94 0 -159 -54q-64 -53 -76 -147h477zM270 1227v205h637v-205h-637z" />
    <glyph glyph-name="Ebreve" unicode="&#x114;" horiz-adv-x="1169" 
d="M123 1434h962v-265h-655v-321h533v-252h-533v-332h678v-264h-985v1434zM500 1835q0 -54 30 -84q31 -31 82 -31q49 0 81 32t32 83h207q-6 -135 -95 -218t-231 -83q-135 0 -221 83t-92 218h207z" />
    <glyph glyph-name="ebreve" unicode="&#x115;" horiz-adv-x="1189" 
d="M126 810q66 122 186 188q122 67 278 67q160 0 281 -63q123 -64 191 -176q70 -115 71 -267q0 -46 -9 -98h-764v-8q11 -115 74 -181q62 -65 174 -65q88 0 147 38q58 37 76 111h285q-16 -103 -80 -188q-63 -84 -168 -132t-239 -48q-178 0 -304 65q-128 66 -197 188t-69 283
q0 163 67 286zM844 649q-15 97 -79 149t-163 52q-94 0 -159 -54q-64 -53 -76 -147h477zM475 1454q0 -53 31 -84t82 -31q49 0 81 32q31 31 31 83h207q-6 -135 -95 -218t-230 -83q-136 0 -222 83t-92 218h207z" />
    <glyph glyph-name="Edotaccent" unicode="&#x116;" horiz-adv-x="1169" 
d="M123 1434h962v-265h-655v-321h533v-252h-533v-332h678v-264h-985v1434zM494 1846q46 46 118 46q73 0 119 -46q47 -47 47 -115q0 -69 -47 -116q-46 -46 -119 -46q-72 0 -118 46q-48 48 -48 116q0 67 48 115z" />
    <glyph glyph-name="edotaccent" unicode="&#x117;" horiz-adv-x="1189" 
d="M126 810q66 122 186 188q122 67 278 67q160 0 281 -63q123 -64 191 -176q70 -115 71 -267q0 -46 -9 -98h-764v-8q11 -115 74 -181q62 -65 174 -65q88 0 147 38q58 37 76 111h285q-16 -103 -80 -188q-63 -84 -168 -132t-239 -48q-178 0 -304 65q-128 66 -197 188t-69 283
q0 163 67 286zM844 649q-15 97 -79 149t-163 52q-94 0 -159 -54q-64 -53 -76 -147h477zM469 1465q46 46 119 46t119 -46q47 -47 47 -115q0 -69 -47 -116q-46 -46 -119 -46t-119 46q-47 47 -47 116q0 68 47 115z" />
    <glyph glyph-name="Eogonek" unicode="&#x118;" horiz-adv-x="1169" 
d="M1112 -217v-193h-184q-104 0 -174 55t-70 144q0 116 115 211h-676v1434h962v-265h-655v-321h533v-252h-533v-332h678v-264q-98 -44 -145 -83q-50 -41 -50 -81q0 -53 68 -53h131z" />
    <glyph glyph-name="eogonek" unicode="&#x119;" horiz-adv-x="1189" 
d="M360 461v-8q11 -115 74 -181q62 -65 174 -65q88 0 147 38q58 37 76 111h285q-21 -130 -116 -228t-244 -128q-100 -45 -146 -83q-49 -40 -49 -81q0 -53 68 -53h131v-193h-185q-104 0 -174 55q-69 54 -69 144q0 118 123 217q-189 45 -292 181q-104 137 -104 337
q0 163 67 286q66 122 186 188q122 67 278 67q160 0 281 -63q123 -64 191 -176q70 -115 71 -267q0 -46 -9 -98h-764zM443 796q-64 -53 -76 -147h477q-15 97 -79 149t-163 52q-94 0 -159 -54z" />
    <glyph glyph-name="Ecaron" unicode="&#x11a;" horiz-adv-x="1169" 
d="M123 1434h962v-265h-655v-321h533v-252h-533v-332h678v-264h-985v1434zM612 1714l127 121h265l-263 -291h-258l-262 291h266z" />
    <glyph glyph-name="ecaron" unicode="&#x11b;" horiz-adv-x="1189" 
d="M126 810q66 122 186 188q122 67 278 67q160 0 281 -63q123 -64 191 -176q70 -115 71 -267q0 -46 -9 -98h-764v-8q11 -115 74 -181q62 -65 174 -65q88 0 147 38q58 37 76 111h285q-16 -103 -80 -188q-63 -84 -168 -132t-239 -48q-178 0 -304 65q-128 66 -197 188t-69 283
q0 163 67 286zM844 649q-15 97 -79 149t-163 52q-94 0 -159 -54q-64 -53 -76 -147h477zM588 1333l127 121h264l-262 -291h-258l-262 291h266z" />
    <glyph glyph-name="Gcircumflex" unicode="&#x11c;" horiz-adv-x="1533" 
d="M152 1101q86 165 246 255t378 90q170 0 305 -66q136 -67 218 -184q84 -121 102 -272h-303q-28 119 -115 191q-86 71 -215 71q-118 0 -207 -60q-89 -61 -135 -165q-47 -108 -47 -244q0 -212 103 -340q104 -129 286 -129q133 0 236 73q101 71 122 214v18h-356v244h641v-797
h-213l-33 178q-63 -84 -170 -137q-108 -53 -247 -53q-204 0 -358 90q-153 89 -239 256q-85 166 -85 383q0 218 86 384zM776 1665l-127 -121h-264l262 291h258l262 -291h-266z" />
    <glyph glyph-name="gcircumflex" unicode="&#x11d;" horiz-adv-x="1253" 
d="M1153 1053v-1022q0 -207 -137 -330q-136 -123 -426 -123q-226 0 -361 98q-137 99 -147 279h291q21 -77 81 -117q61 -41 158 -41q123 0 191 62q67 61 67 182v111q-114 -146 -325 -146q-139 0 -250 66q-110 66 -173 185q-63 120 -63 280q0 157 63 278q62 119 174 186
q111 66 251 66q205 0 327 -160l25 146h254zM799 319q69 83 69 213q0 134 -69 218t-187 84q-116 0 -187 -83t-71 -216t71 -216q69 -81 187 -81q119 0 187 81zM608 1284l-127 -121h-264l262 291h258l262 -291h-266z" />
    <glyph glyph-name="Gbreve" unicode="&#x11e;" horiz-adv-x="1533" 
d="M152 1101q86 165 246 255t378 90q170 0 305 -66q136 -67 218 -184q84 -121 102 -272h-303q-28 119 -115 191q-86 71 -215 71q-118 0 -207 -60q-89 -61 -135 -165q-47 -108 -47 -244q0 -212 103 -340q104 -129 286 -129q133 0 236 73q101 71 122 214v18h-356v244h641v-797
h-213l-33 178q-63 -84 -170 -137q-108 -53 -247 -53q-204 0 -358 90q-153 89 -239 256q-85 166 -85 383q0 218 86 384zM664 1835q0 -54 30 -84q31 -31 82 -31q49 0 81 32t32 83h207q-6 -134 -96 -218q-89 -83 -230 -83q-135 0 -221 83t-92 218h207z" />
    <glyph glyph-name="gbreve" unicode="&#x11f;" horiz-adv-x="1253" 
d="M1153 1053v-1022q0 -207 -137 -330q-136 -123 -426 -123q-226 0 -361 98q-137 99 -147 279h291q21 -77 81 -117q61 -41 158 -41q123 0 191 62q67 61 67 182v111q-114 -146 -325 -146q-139 0 -250 66q-110 66 -173 185q-63 120 -63 280q0 157 63 278q62 119 174 186
q111 66 251 66q205 0 327 -160l25 146h254zM799 319q69 83 69 213q0 134 -69 218t-187 84q-116 0 -187 -83t-71 -216t71 -216q69 -81 187 -81q119 0 187 81zM496 1454q0 -54 30 -84q31 -31 82 -31q49 0 81 32t32 83h207q-6 -135 -95 -218t-231 -83q-135 0 -221 83t-92 218
h207z" />
    <glyph glyph-name="Gdotaccent" unicode="&#x120;" horiz-adv-x="1533" 
d="M152 1101q86 165 246 255t378 90q170 0 305 -66q136 -67 218 -184q84 -121 102 -272h-303q-28 119 -115 191q-86 71 -215 71q-118 0 -207 -60q-89 -61 -135 -165q-47 -108 -47 -244q0 -212 103 -340q104 -129 286 -129q133 0 236 73q101 71 122 214v18h-356v244h641v-797
h-213l-33 178q-63 -84 -170 -137q-108 -53 -247 -53q-204 0 -358 90q-153 89 -239 256q-85 166 -85 383q0 218 86 384zM657 1846q46 46 119 46t119 -46q47 -47 47 -115q0 -69 -47 -116q-46 -46 -119 -46t-119 46q-47 47 -47 116q0 68 47 115z" />
    <glyph glyph-name="gdotaccent" unicode="&#x121;" horiz-adv-x="1253" 
d="M1153 1053v-1022q0 -207 -137 -330q-136 -123 -426 -123q-226 0 -361 98q-137 99 -147 279h291q21 -77 81 -117q61 -41 158 -41q123 0 191 62q67 61 67 182v111q-114 -146 -325 -146q-139 0 -250 66q-110 66 -173 185q-63 120 -63 280q0 157 63 278q62 119 174 186
q111 66 251 66q205 0 327 -160l25 146h254zM799 319q69 83 69 213q0 134 -69 218t-187 84q-116 0 -187 -83t-71 -216t71 -216q69 -81 187 -81q119 0 187 81zM489 1465q46 46 119 46t119 -46q47 -47 47 -115q0 -69 -47 -116q-46 -46 -119 -46t-119 46q-47 47 -47 116
q0 68 47 115z" />
    <glyph glyph-name="Gcommaaccent" unicode="&#x122;" horiz-adv-x="1533" 
d="M152 1101q86 165 246 255t378 90q170 0 305 -66q136 -67 218 -184q84 -121 102 -272h-303q-28 119 -115 191q-86 71 -215 71q-118 0 -207 -60q-89 -61 -135 -165q-47 -108 -47 -244q0 -212 103 -340q104 -129 286 -129q133 0 236 73q101 71 122 214v18h-356v244h641v-797
h-213l-33 178q-63 -84 -170 -137q-108 -53 -247 -53q-204 0 -358 90q-153 89 -239 256q-85 166 -85 383q0 218 86 384zM602 -98h281l-174 -301h-215z" />
    <glyph glyph-name="gcommaaccent" unicode="&#x123;" horiz-adv-x="1253" 
d="M1153 1053v-1022q0 -207 -137 -330q-136 -123 -426 -123q-226 0 -361 98q-137 99 -147 279h291q21 -77 81 -117q61 -41 158 -41q123 0 191 62q67 61 67 182v111q-114 -146 -325 -146q-139 0 -250 66q-110 66 -173 185q-63 120 -63 280q0 157 63 278q62 119 174 186
q111 66 251 66q205 0 327 -160l25 146h254zM799 319q69 83 69 213q0 134 -69 218t-187 84q-116 0 -187 -83t-71 -216t71 -216q69 -81 187 -81q119 0 187 81zM733 1155h-280l170 299h219z" />
    <glyph glyph-name="Hcircumflex" unicode="&#x124;" horiz-adv-x="1427" 
d="M123 1434h307v-576h569v576h308v-1434h-308v592h-569v-592h-307v1434zM715 1665l-127 -121h-264l262 291h258l262 -291h-266z" />
    <glyph glyph-name="hcircumflex" unicode="&#x125;" horiz-adv-x="1208" 
d="M1007 950q119 -113 119 -379v-571h-288v559q0 129 -54 200q-52 68 -159 68q-111 0 -173 -75q-63 -76 -63 -211v-541h-289v1434h289v-510q117 141 311 141q186 0 307 -115zM244 1651l-127 -121h-264l262 291h258l262 -291h-266z" />
    <glyph glyph-name="Hbar" unicode="&#x126;" horiz-adv-x="1476" 
d="M1483 1223v-211h-152v-1012h-307v545h-571v-545h-308v1012h-151v211h151v211h308v-211h571v211h307v-211h152zM1024 811v201h-571v-201h571z" />
    <glyph glyph-name="hbar" unicode="&#x127;" 
d="M1027 950q120 -114 120 -379v-571h-289v559q0 130 -53 200q-52 68 -160 68q-111 0 -173 -75t-62 -211v-541h-289v1122h-154v211h154v101h289v-101h280v-211h-280v-198q117 141 311 141q185 0 306 -115z" />
    <glyph glyph-name="Itilde" unicode="&#x128;" horiz-adv-x="550" 
d="M123 1434h307v-1434h-307v1434zM140 1633q-19 -23 -19 -56h-168v41q0 94 54 157q53 62 140 62q45 0 72 -13q28 -13 62 -38q27 -21 40 -28q18 -9 39 -9q32 0 50 23q18 22 18 57h168v-43q0 -95 -55 -157t-140 -62q-46 0 -74 14q-33 17 -63 41q-28 21 -40 27q-16 8 -34 8
q-30 0 -50 -24z" />
    <glyph glyph-name="itilde" unicode="&#x129;" horiz-adv-x="489" 
d="M100 1053h291v-1053h-291v1053zM112 1252q-20 -25 -20 -56h-168v41q0 94 54 157q53 62 141 62q44 0 71 -13q28 -13 62 -38q27 -21 40 -28q18 -9 40 -9q31 0 49 23t18 57h168v-43q0 -95 -55 -157t-139 -62q-47 0 -75 14q-31 15 -62 41q-28 21 -40 27q-16 8 -34 8
q-30 0 -50 -24z" />
    <glyph glyph-name="Imacron" unicode="&#x12a;" horiz-adv-x="550" 
d="M123 1434h307v-1434h-307v1434zM-43 1608v204h637v-204h-637z" />
    <glyph glyph-name="imacron" unicode="&#x12b;" horiz-adv-x="489" 
d="M100 1053h291v-1053h-291v1053zM-72 1227v205h637v-205h-637z" />
    <glyph glyph-name="Ibreve" unicode="&#x12c;" horiz-adv-x="550" 
d="M123 1434h307v-1434h-307v1434zM162 1835q0 -53 31 -84t81 -31q49 0 81 32t32 83h207q-6 -135 -95 -218t-231 -83q-135 0 -221 83t-92 218h207z" />
    <glyph glyph-name="ibreve" unicode="&#x12d;" horiz-adv-x="489" 
d="M100 1053h291v-1053h-291v1053zM133 1454q0 -53 31 -84t82 -31q49 0 81 32q31 31 31 83h207q-6 -135 -95 -218t-230 -83q-136 0 -222 83t-92 218h207z" />
    <glyph glyph-name="Iogonek" unicode="&#x12e;" horiz-adv-x="550" 
d="M434 -217v-193h-184q-104 0 -174 55t-70 144q0 114 117 213v1432h307v-1434q-98 -44 -145 -83q-49 -40 -49 -81q0 -53 67 -53h131z" />
    <glyph glyph-name="iogonek" unicode="&#x12f;" horiz-adv-x="489" 
d="M126 1212q-48 46 -48 117q0 69 48 116q47 46 120 46t119 -46q47 -47 47 -116q0 -70 -47 -117t-119 -47q-71 0 -120 47zM262 -217h131v-193h-184q-104 0 -174 55t-70 144q0 125 135 227v1037h289v-1053q-98 -44 -145 -83q-49 -40 -49 -81q0 -53 67 -53z" />
    <glyph glyph-name="Idotaccent" unicode="&#x130;" horiz-adv-x="550" 
d="M123 1434h307v-1434h-307v1434zM156 1846q46 46 118 46q73 0 119 -46q47 -47 47 -115q0 -69 -47 -116q-46 -46 -119 -46q-72 0 -118 46q-47 47 -47 116q0 68 47 115z" />
    <glyph glyph-name="dotlessi" unicode="&#x131;" horiz-adv-x="489" 
d="M100 1053h291v-1053h-291v1053z" />
    <glyph glyph-name="IJ" unicode="&#x132;" horiz-adv-x="1339" 
d="M422 559q0 -147 61 -229t187 -82q127 0 187 77q61 78 61 230v879h309v-871q0 -282 -144 -429q-143 -146 -413 -146q-272 0 -416 144q-143 143 -141 427h309zM117 1434h307v-695h-307v695z" />
    <glyph glyph-name="ij" unicode="&#x133;" horiz-adv-x="989" 
d="M365 1445q47 -47 47 -116q0 -70 -47 -117t-119 -47q-71 0 -120 47q-48 46 -48 117q0 69 48 116q47 46 120 46t119 -46zM100 1053h289v-1053h-289v1053zM863 1445q48 -47 48 -116q0 -71 -48 -117q-49 -47 -120 -47t-118 47t-47 117q0 69 47 116q46 46 118 46q73 0 120 -46
zM496 -166q52 0 78 28t26 89v1102h289v-1143q0 -149 -78 -235q-78 -85 -225 -85h-191v244h101z" />
    <glyph glyph-name="Jcircumflex" unicode="&#x134;" horiz-adv-x="813" 
d="M690 1434v-1053q0 -180 -99 -281q-99 -100 -282 -100h-264v266h170q90 0 129 42t39 132v994h307zM537 1665l-127 -121h-265l263 291h258l262 -291h-266z" />
    <glyph glyph-name="jcircumflex" unicode="&#x135;" horiz-adv-x="499" 
d="M6 -166q53 0 79 28t26 89v1102h288v-1143q0 -151 -77 -235q-78 -85 -226 -85h-190v244h100zM256 1284l-127 -121h-264l262 291h258l262 -291h-266z" />
    <glyph glyph-name="Kcommaaccent" unicode="&#x136;" horiz-adv-x="1398" 
d="M123 1432h307v-644l574 644h372l-526 -590l561 -842h-369l-409 604l-203 -227v-377h-307v1432zM549 -98h280l-174 -301h-215z" />
    <glyph glyph-name="kcommaaccent" unicode="&#x137;" horiz-adv-x="1150" 
d="M100 1434h289v-830l414 449h323l-374 -412l395 -641h-334l-266 426l-158 -170v-256h-289v1434zM459 -98h280l-174 -301h-215z" />
    <glyph glyph-name="Lacute" unicode="&#x139;" horiz-adv-x="1042" 
d="M123 0v1434h307v-1170h569v-264h-876zM174 1546l150 289h329l-268 -289h-211z" />
    <glyph glyph-name="lacute" unicode="&#x13a;" horiz-adv-x="489" 
d="M100 1434h289v-1434h-289v1434zM143 1532l150 289h330l-269 -289h-211z" />
    <glyph glyph-name="Lcommaaccent" unicode="&#x13b;" horiz-adv-x="1042" 
d="M123 0v1434h307v-1170h569v-264h-876zM408 -98h280l-174 -301h-215z" />
    <glyph glyph-name="lcommaaccent" unicode="&#x13c;" horiz-adv-x="489" 
d="M100 1434h289v-1434h-289v1434zM96 -98h281l-174 -301h-215z" />
    <glyph glyph-name="Lcaron" unicode="&#x13d;" horiz-adv-x="1042" 
d="M123 0v1434h307v-1170h569v-264h-876zM586 1434h270l-139 -304h-203z" />
    <glyph glyph-name="lcaron" unicode="&#x13e;" horiz-adv-x="624" 
d="M100 1434h289v-1434h-289v1434zM530 1434h271l-139 -304h-203z" />
    <glyph glyph-name="Ldot" unicode="&#x13f;" horiz-adv-x="1042" 
d="M123 0v1434h307v-1170h569v-264h-876zM668 898q46 46 118 46q73 0 119 -46q47 -47 47 -116q0 -68 -47 -115q-46 -46 -119 -46q-72 0 -118 46q-47 47 -47 115q0 69 47 116z" />
    <glyph glyph-name="ldot" unicode="&#x140;" horiz-adv-x="776" 
d="M100 1434h289v-1434h-289v1434zM516 804q46 46 119 46t119 -46q47 -47 47 -116t-47 -116q-46 -46 -119 -46t-119 46q-47 47 -47 116t47 116z" />
    <glyph glyph-name="Lslash" unicode="&#x141;" horiz-adv-x="1067" 
d="M453 264h569v-264h-877v543l-151 -80v237l151 80v654h308v-492l286 152v-236l-286 -151v-443z" />
    <glyph glyph-name="lslash" unicode="&#x142;" horiz-adv-x="632" 
d="M616 1022v-250l-155 -70v-702h-289v575l-156 -69v250l156 69v609h289v-482z" />
    <glyph glyph-name="Nacute" unicode="&#x143;" horiz-adv-x="1433" 
d="M123 0v1434h278l609 -904v904h303v-1434h-281l-608 903v-903h-301zM594 1546l149 289h330l-268 -289h-211z" />
    <glyph glyph-name="nacute" unicode="&#x144;" horiz-adv-x="1208" 
d="M1008 950q118 -114 118 -379v-571h-288v555q0 272 -213 272q-114 0 -174 -75q-62 -77 -62 -213v-539h-289v1053h252l27 -131q56 68 133 105q79 38 193 38q183 0 303 -115zM559 1165l150 289h329l-268 -289h-211z" />
    <glyph glyph-name="Ncommaaccent" unicode="&#x145;" horiz-adv-x="1433" 
d="M123 0v1434h278l609 -904v904h303v-1434h-281l-608 903v-903h-301zM563 -98h281l-174 -301h-215z" />
    <glyph glyph-name="ncommaaccent" unicode="&#x146;" horiz-adv-x="1208" 
d="M1008 950q118 -114 118 -379v-571h-288v555q0 272 -213 272q-114 0 -174 -75q-62 -77 -62 -213v-539h-289v1053h252l27 -131q56 68 133 105q79 38 193 38q183 0 303 -115zM469 -98h281l-175 -301h-215z" />
    <glyph glyph-name="Ncaron" unicode="&#x147;" horiz-adv-x="1433" 
d="M123 0v1434h278l609 -904v904h303v-1434h-281l-608 903v-903h-301zM694 1714l127 121h264l-262 -291h-258l-262 291h266z" />
    <glyph glyph-name="ncaron" unicode="&#x148;" horiz-adv-x="1208" 
d="M1008 950q118 -114 118 -379v-571h-288v555q0 272 -213 272q-114 0 -174 -75q-62 -77 -62 -213v-539h-289v1053h252l27 -131q56 68 133 105q79 38 193 38q183 0 303 -115zM659 1333l127 121h265l-263 -291h-258l-262 291h267z" />
    <glyph glyph-name="napostrophe" unicode="&#x149;" horiz-adv-x="1650" 
d="M389 1371q60 -75 60 -193q0 -169 -103 -260q-104 -92 -280 -93v150q94 1 144 41q50 39 50 98q0 19 -2 29q-34 -17 -65 -17q-60 0 -100 40t-40 116q0 68 52 116q53 48 128 48q96 0 156 -75zM1450 950q119 -114 119 -379v-571h-289v555q0 272 -213 272q-114 0 -174 -75
q-62 -77 -62 -213v-539h-288v1053h252l26 -131q56 68 133 105q79 38 193 38q183 0 303 -115z" />
    <glyph glyph-name="Eng" unicode="&#x14a;" horiz-adv-x="1433" 
d="M1313 1434v-1506q0 -162 -82 -250t-238 -88h-180v250h100q53 0 79 28t26 89v63l-594 883v-903h-301v1434h278l609 -904v904h303z" />
    <glyph glyph-name="eng" unicode="&#x14b;" horiz-adv-x="1208" 
d="M1008 950q118 -114 118 -379v-649q0 -155 -82 -243q-83 -89 -235 -89h-182v244h102q55 0 82 29t27 92v600q0 272 -213 272q-114 0 -174 -75q-62 -77 -62 -213v-539h-289v1053h252l27 -133q112 145 326 145q183 0 303 -115z" />
    <glyph glyph-name="Omacron" unicode="&#x14c;" horiz-adv-x="1550" 
d="M1397 343q-90 -167 -252 -261q-161 -94 -369 -94q-207 0 -368 94q-162 94 -252 261t-90 374q0 208 90 374q90 167 252 261q161 94 368 94q208 0 369 -94q162 -94 252 -261q90 -166 90 -374q0 -207 -90 -374zM428 475q50 -108 139 -167q90 -60 209 -60q117 0 207 60
q89 59 139 167q49 105 49 242q0 136 -49 241q-50 108 -139 167q-92 61 -207 61q-118 0 -209 -61q-89 -59 -139 -167q-49 -105 -49 -241q0 -137 49 -242zM459 1608v204h637v-204h-637z" />
    <glyph glyph-name="omacron" unicode="&#x14d;" 
d="M323 54q-125 66 -195 190q-69 123 -69 282q0 160 69 283t195 189q128 67 291 67q164 0 292 -67q126 -66 195 -189q68 -121 68 -283q0 -163 -68 -283q-70 -124 -195 -189q-126 -66 -292 -66q-165 0 -291 66zM806 307q71 85 71 219t-71 219q-70 84 -192 84q-118 0 -189 -84
q-71 -85 -71 -219t71 -219q71 -84 189 -84q122 0 192 84zM297 1227v205h637v-205h-637z" />
    <glyph glyph-name="Obreve" unicode="&#x14e;" horiz-adv-x="1550" 
d="M1397 343q-90 -167 -252 -261q-161 -94 -369 -94q-207 0 -368 94q-162 94 -252 261t-90 374q0 208 90 374q90 167 252 261q161 94 368 94q208 0 369 -94q162 -94 252 -261q90 -166 90 -374q0 -207 -90 -374zM428 475q50 -108 139 -167q90 -60 209 -60q117 0 207 60
q89 59 139 167q49 105 49 242q0 136 -49 241q-50 108 -139 167q-92 61 -207 61q-118 0 -209 -61q-89 -59 -139 -167q-49 -105 -49 -241q0 -137 49 -242zM664 1835q0 -54 30 -84q31 -31 82 -31q49 0 81 32t32 83h207q-6 -134 -96 -218q-89 -83 -230 -83q-135 0 -221 83
t-92 218h207z" />
    <glyph glyph-name="obreve" unicode="&#x14f;" 
d="M323 54q-125 66 -195 190q-69 123 -69 282q0 160 69 283t195 189q128 67 291 67q164 0 292 -67q126 -66 195 -189q68 -121 68 -283q0 -163 -68 -283q-70 -124 -195 -189q-126 -66 -292 -66q-165 0 -291 66zM806 307q71 85 71 219t-71 219q-70 84 -192 84q-118 0 -189 -84
q-71 -85 -71 -219t71 -219q71 -84 189 -84q122 0 192 84zM502 1454q0 -54 30 -84q31 -31 82 -31q49 0 81 32t32 83h207q-6 -135 -95 -218t-231 -83q-135 0 -221 83t-92 218h207z" />
    <glyph glyph-name="Ohungarumlaut" unicode="&#x150;" horiz-adv-x="1550" 
d="M1397 343q-90 -167 -252 -261q-161 -94 -369 -94q-207 0 -368 94q-162 94 -252 261t-90 374q0 208 90 374q90 167 252 261q161 94 368 94q208 0 369 -94q162 -94 252 -261q90 -166 90 -374q0 -207 -90 -374zM428 475q50 -108 139 -167q90 -60 209 -60q117 0 207 60
q89 59 139 167q49 105 49 242q0 136 -49 241q-50 108 -139 167q-92 61 -207 61q-118 0 -209 -61q-89 -59 -139 -167q-49 -105 -49 -241q0 -137 49 -242zM449 1540l149 295h315l-268 -295h-196zM856 1540l152 295h313l-266 -295h-199z" />
    <glyph glyph-name="ohungarumlaut" unicode="&#x151;" 
d="M323 54q-125 66 -195 190q-69 123 -69 282q0 160 69 283t195 189q128 67 291 67q164 0 292 -67q126 -66 195 -189q68 -121 68 -283q0 -163 -68 -283q-70 -124 -195 -189q-126 -66 -292 -66q-165 0 -291 66zM806 307q71 85 71 219t-71 219q-70 84 -192 84q-118 0 -189 -84
q-71 -85 -71 -219t71 -219q71 -84 189 -84q122 0 192 84zM287 1159l149 295h316l-269 -295h-196zM694 1159l152 295h313l-266 -295h-199z" />
    <glyph glyph-name="OE" unicode="&#x152;" horiz-adv-x="2283" 
d="M2222 264v-264h-985v156q-157 -168 -434 -168q-216 0 -383 94q-168 94 -261 261t-93 374t93 374t261 261q167 94 383 94q277 0 434 -168v156h963v-265h-656v-321h533v-252h-533v-332h678zM1031 308q99 61 151 167q53 108 53 242q0 133 -53 241q-52 106 -151 167t-224 61
q-127 0 -226 -61q-97 -60 -150 -167q-52 -105 -52 -241q0 -137 52 -242q53 -107 150 -167t226 -60q126 0 224 60z" />
    <glyph glyph-name="oe" unicode="&#x153;" horiz-adv-x="1978" 
d="M1147 461v-8q11 -118 75 -182t175 -64q87 0 145 38t76 111h287q-16 -103 -80 -188q-63 -84 -168 -132t-240 -48q-133 0 -238 42q-108 43 -175 119q-67 -76 -170 -119q-100 -42 -222 -42q-166 0 -290 66t-194 189q-69 121 -69 283t69 284t194 188q126 67 290 67
q125 0 227 -42t171 -120q67 79 158 120q93 42 208 42q160 0 282 -63t191 -177q70 -116 70 -266q0 -52 -8 -98h-764zM1230 796q-65 -54 -77 -147h477q-15 97 -78 149q-62 52 -163 52q-95 0 -159 -54zM804 306q71 83 71 218q0 136 -71 221q-70 84 -192 84q-119 0 -188 -84
q-70 -85 -70 -219q0 -138 69 -220q69 -83 189 -83q121 0 192 83z" />
    <glyph glyph-name="Racute" unicode="&#x154;" horiz-adv-x="1314" 
d="M707 1434q154 0 275 -59q118 -58 185 -167q66 -108 66 -252q0 -137 -66 -242q-66 -106 -180 -161l283 -553h-340l-240 481h-260v-481h-307v1434h584zM430 737h252q108 0 173 60t65 159q0 102 -65 162q-64 60 -173 60h-252v-441zM502 1546l149 289h330l-268 -289h-211z
" />
    <glyph glyph-name="racute" unicode="&#x155;" horiz-adv-x="770" 
d="M741 1053v-262h-114q-124 0 -181 -74q-57 -73 -57 -201v-516h-289v1053h262l27 -158q45 76 117 118q68 40 186 40h49zM332 1165l149 289h330l-268 -289h-211z" />
    <glyph glyph-name="Rcommaaccent" unicode="&#x156;" horiz-adv-x="1314" 
d="M707 1434q154 0 275 -59q118 -58 185 -167q66 -108 66 -252q0 -137 -66 -242q-66 -106 -180 -161l283 -553h-340l-240 481h-260v-481h-307v1434h584zM430 737h252q108 0 173 60t65 159q0 102 -65 162q-64 60 -173 60h-252v-441zM506 -98h280l-174 -301h-215z" />
    <glyph glyph-name="rcommaaccent" unicode="&#x157;" horiz-adv-x="770" 
d="M741 1053v-262h-114q-124 0 -181 -74q-57 -73 -57 -201v-516h-289v1053h262l27 -158q45 76 117 118q68 40 186 40h49zM98 -98h281l-174 -301h-215z" />
    <glyph glyph-name="Rcaron" unicode="&#x158;" horiz-adv-x="1314" 
d="M707 1434q154 0 275 -59q118 -58 185 -167q66 -108 66 -252q0 -137 -66 -242q-66 -106 -180 -161l283 -553h-340l-240 481h-260v-481h-307v1434h584zM430 737h252q108 0 173 60t65 159q0 102 -65 162q-64 60 -173 60h-252v-441zM602 1714l127 121h264l-262 -291h-258
l-262 291h266z" />
    <glyph glyph-name="rcaron" unicode="&#x159;" horiz-adv-x="770" 
d="M741 1053v-262h-114q-124 0 -181 -74q-57 -73 -57 -201v-516h-289v1053h262l27 -158q45 76 117 118q68 40 186 40h49zM432 1333l127 121h264l-262 -291h-258l-262 291h266z" />
    <glyph glyph-name="Sacute" unicode="&#x15a;" horiz-adv-x="1280" 
d="M367 467q7 -107 87 -171q80 -65 210 -65q107 0 177 47q68 46 68 128q0 56 -38 91q-36 33 -106 53q-71 20 -212 48q-143 27 -238 69t-156 125q-61 84 -61 220q0 124 69 223q68 98 190 155q119 56 276 56q158 0 283 -58q127 -59 199 -161q74 -104 75 -232h-301
q-11 92 -78 149q-66 56 -178 56q-103 0 -164 -43t-61 -123q0 -59 36 -89q38 -31 105 -51q61 -18 209 -46q143 -27 241 -67q100 -41 159 -121q61 -82 61 -216q0 -130 -72 -234q-71 -102 -200 -163q-125 -59 -288 -59q-175 0 -306 62q-135 63 -210 173t-77 248zM537 1546
l149 289h330l-268 -289h-211z" />
    <glyph glyph-name="sacute" unicode="&#x15b;" horiz-adv-x="1105" 
d="M336 350q6 -69 67 -112t158 -43q95 0 146 29q53 30 53 85q0 40 -25 62q-23 20 -69 29q-56 11 -148 22q-137 18 -231 47q-93 29 -148 90t-55 164t56 181t159 122q101 43 236 43q214 -1 347 -92q131 -90 142 -250h-274q-6 59 -63 97q-58 38 -144 38q-81 0 -132 -31t-51 -81
q0 -38 27 -56q28 -19 70 -26q60 -10 143 -19q211 -24 327 -91q113 -65 113 -228q0 -102 -60 -180t-168 -120t-249 -42q-220 0 -356 97q-139 99 -146 265h275zM434 1165l150 289h329l-268 -289h-211z" />
    <glyph glyph-name="Scircumflex" unicode="&#x15c;" horiz-adv-x="1280" 
d="M367 467q7 -107 87 -171q80 -65 210 -65q107 0 177 47q68 46 68 128q0 56 -38 91q-36 33 -106 53q-71 20 -212 48q-143 27 -238 69t-156 125q-61 84 -61 220q0 124 69 223q68 98 190 155q119 56 276 56q158 0 283 -58q127 -59 199 -161q74 -104 75 -232h-301
q-11 92 -78 149q-66 56 -178 56q-103 0 -164 -43t-61 -123q0 -59 36 -89q38 -31 105 -51q61 -18 209 -46q143 -27 241 -67q100 -41 159 -121q61 -82 61 -216q0 -130 -72 -234q-71 -102 -200 -163q-125 -59 -288 -59q-175 0 -306 62q-135 63 -210 173t-77 248zM637 1665
l-127 -121h-264l262 291h258l262 -291h-266z" />
    <glyph glyph-name="scircumflex" unicode="&#x15d;" horiz-adv-x="1105" 
d="M336 350q6 -69 67 -112t158 -43q95 0 146 29q53 30 53 85q0 40 -25 62q-23 20 -69 29q-56 11 -148 22q-137 18 -231 47q-93 29 -148 90t-55 164t56 181t159 122q101 43 236 43q214 -1 347 -92q131 -90 142 -250h-274q-6 59 -63 97q-58 38 -144 38q-81 0 -132 -31t-51 -81
q0 -38 27 -56q28 -19 70 -26q60 -10 143 -19q211 -24 327 -91q113 -65 113 -228q0 -102 -60 -180t-168 -120t-249 -42q-220 0 -356 97q-139 99 -146 265h275zM535 1284l-127 -121h-265l263 291h258l262 -291h-267z" />
    <glyph glyph-name="Scedilla" unicode="&#x15e;" horiz-adv-x="1280" 
d="M999 781q100 -41 159 -121q61 -82 61 -216q0 -121 -64 -222q-63 -99 -176 -161q-110 -60 -256 -71l-14 -51h34q88 0 137 -42q50 -42 50 -116q0 -87 -61 -139t-162 -52h-244v142h188q60 0 60 51q0 21 -17 33q-16 12 -43 12h-121l41 164q-150 16 -263 82q-114 66 -177 169
q-64 104 -65 228l301 -4q7 -107 87 -171q80 -65 210 -65q107 0 177 47q68 46 68 128q0 56 -38 91q-36 33 -106 53q-71 20 -212 48q-143 27 -238 69t-156 125q-61 84 -61 220q0 124 69 223q68 98 190 155q119 56 276 56q158 0 283 -58q127 -59 199 -161q74 -104 75 -232h-301
q-11 92 -78 149q-66 56 -178 56q-103 0 -164 -43t-61 -123q0 -59 36 -89q38 -31 105 -51q61 -18 209 -46q143 -27 241 -67z" />
    <glyph glyph-name="scedilla" unicode="&#x15f;" horiz-adv-x="1105" 
d="M930 97q-110 -90 -295 -107l-14 -53h34q87 0 137 -42t50 -116q0 -87 -61 -139t-162 -52h-244v142h188q60 0 60 51q0 21 -17 33q-16 12 -43 12h-121l41 166q-188 16 -301 111t-121 247h275q6 -69 67 -112t158 -43q95 0 146 29q53 30 53 85q0 40 -25 62q-23 20 -69 29
q-56 11 -148 22q-137 18 -231 47q-93 29 -148 90t-55 164t56 181t159 122q101 43 236 43q214 -1 347 -92q131 -90 142 -250h-274q-6 59 -63 97q-58 38 -144 38q-81 0 -132 -31t-51 -81q0 -38 27 -56q28 -19 70 -26q60 -10 143 -19q211 -24 327 -91q113 -65 113 -228
q0 -142 -110 -233z" />
    <glyph glyph-name="Scaron" unicode="&#x160;" horiz-adv-x="1280" 
d="M367 467q7 -107 87 -171q80 -65 210 -65q107 0 177 47q68 46 68 128q0 56 -38 91q-36 33 -106 53q-71 20 -212 48q-143 27 -238 69t-156 125q-61 84 -61 220q0 124 69 223q68 98 190 155q119 56 276 56q158 0 283 -58q127 -59 199 -161q74 -104 75 -232h-301
q-11 92 -78 149q-66 56 -178 56q-103 0 -164 -43t-61 -123q0 -59 36 -89q38 -31 105 -51q61 -18 209 -46q143 -27 241 -67q100 -41 159 -121q61 -82 61 -216q0 -130 -72 -234q-71 -102 -200 -163q-125 -59 -288 -59q-175 0 -306 62q-135 63 -210 173t-77 248zM637 1714
l127 121h264l-262 -291h-258l-262 291h266z" />
    <glyph glyph-name="scaron" unicode="&#x161;" horiz-adv-x="1105" 
d="M336 350q6 -69 67 -112t158 -43q95 0 146 29q53 30 53 85q0 40 -25 62q-23 20 -69 29q-56 11 -148 22q-137 18 -231 47q-93 29 -148 90t-55 164t56 181t159 122q101 43 236 43q214 -1 347 -92q131 -90 142 -250h-274q-6 59 -63 97q-58 38 -144 38q-81 0 -132 -31t-51 -81
q0 -38 27 -56q28 -19 70 -26q60 -10 143 -19q211 -24 327 -91q113 -65 113 -228q0 -102 -60 -180t-168 -120t-249 -42q-220 0 -356 97q-139 99 -146 265h275zM535 1333l127 121h264l-262 -291h-258l-263 291h267z" />
    <glyph glyph-name="uni0162" unicode="&#x162;" horiz-adv-x="1224" 
d="M45 1434h1135v-265h-414v-1169h-307v1169h-414v265zM465 -98h280l-174 -301h-215z" />
    <glyph glyph-name="uni0163" unicode="&#x163;" horiz-adv-x="729" 
d="M168 809h-174v244h174v295h289v-295h239v-244h-239v-461q0 -57 23 -80q24 -24 79 -24h150v-244h-240q-301 0 -301 301v508zM297 -98h281l-175 -301h-215z" />
    <glyph glyph-name="Tcaron" unicode="&#x164;" horiz-adv-x="1224" 
d="M45 1434h1135v-265h-414v-1169h-307v1169h-414v265zM621 1714l127 121h264l-262 -291h-258l-263 291h267z" />
    <glyph glyph-name="tcaron" unicode="&#x165;" horiz-adv-x="755" 
d="M168 809h-174v244h174v295h289v-295h239v-244h-239v-461q0 -57 23 -80q24 -24 79 -24h150v-244h-240q-301 0 -301 301v508zM602 1444h270l-139 -303h-203z" />
    <glyph glyph-name="Tbar" unicode="&#x166;" horiz-adv-x="1224" 
d="M1180 1169h-414v-370h225v-213h-225v-586h-307v586h-223v213h223v370h-414v265h1135v-265z" />
    <glyph glyph-name="tbar" unicode="&#x167;" horiz-adv-x="770" 
d="M723 244v-244h-240q-301 0 -301 301v150h-174v211h174v147h-174v244h174v295h289v-295h240v-244h-240v-147h240v-211h-240v-103q0 -56 24 -80t78 -24h150z" />
    <glyph glyph-name="Utilde" unicode="&#x168;" horiz-adv-x="1402" 
d="M420 1434v-832q0 -174 67 -262t213 -88q145 0 214 88q69 89 69 262v832h307v-816q0 -306 -150 -468t-440 -162q-288 0 -438 162q-149 161 -149 468v816h307zM568 1633q-19 -23 -19 -56h-168v41q0 94 54 157q53 62 140 62q45 0 72 -13q28 -13 62 -38q27 -21 40 -28
q18 -9 39 -9q32 0 50 23q18 22 18 57h168v-43q0 -95 -55 -157t-140 -62q-46 0 -74 14q-33 17 -63 41q-28 21 -40 27q-16 8 -34 8q-30 0 -50 -24z" />
    <glyph glyph-name="utilde" unicode="&#x169;" horiz-adv-x="1191" 
d="M1092 1053v-1053h-256l-27 127q-53 -63 -129 -102q-73 -37 -180 -37q-185 0 -301 113q-117 114 -117 380v572h289v-537q0 -143 50 -216t154 -73q108 0 168 81t60 227v518h289zM454 1252q-20 -25 -20 -56h-168v41q0 93 55 157q53 62 140 62q44 0 71 -13q28 -13 62 -38
q27 -21 40 -28q18 -9 40 -9q31 0 49 23t18 57h168v-43q0 -95 -55 -157t-139 -62q-47 0 -75 14q-31 15 -62 41q-28 21 -40 27q-16 8 -34 8q-30 0 -50 -24z" />
    <glyph glyph-name="Umacron" unicode="&#x16a;" horiz-adv-x="1402" 
d="M420 1434v-832q0 -174 67 -262t213 -88q145 0 214 88q69 89 69 262v832h307v-816q0 -306 -150 -468t-440 -162q-288 0 -438 162q-149 161 -149 468v816h307zM385 1608v204h637v-204h-637z" />
    <glyph glyph-name="umacron" unicode="&#x16b;" horiz-adv-x="1191" 
d="M1092 1053v-1053h-256l-27 127q-53 -63 -129 -102q-73 -37 -180 -37q-185 0 -301 113q-117 114 -117 380v572h289v-537q0 -143 50 -216t154 -73q108 0 168 81t60 227v518h289zM270 1227v205h637v-205h-637z" />
    <glyph glyph-name="Ubreve" unicode="&#x16c;" horiz-adv-x="1402" 
d="M420 1434v-832q0 -174 67 -262t213 -88q145 0 214 88q69 89 69 262v832h307v-816q0 -306 -150 -468t-440 -162q-288 0 -438 162q-149 161 -149 468v816h307zM590 1835q0 -53 31 -84t81 -31q49 0 81 32t32 83h207q-6 -135 -95 -218t-231 -83q-135 0 -221 83t-92 218h207z
" />
    <glyph glyph-name="ubreve" unicode="&#x16d;" horiz-adv-x="1191" 
d="M1092 1053v-1053h-256l-27 127q-53 -63 -129 -102q-73 -37 -180 -37q-185 0 -301 113q-117 114 -117 380v572h289v-537q0 -143 50 -216t154 -73q108 0 168 81t60 227v518h289zM475 1454q0 -53 31 -84t82 -31q49 0 81 32q31 31 31 83h207q-6 -135 -95 -218t-230 -83
q-136 0 -222 83t-92 218h207z" />
    <glyph glyph-name="Uring" unicode="&#x16e;" horiz-adv-x="1402" 
d="M420 1434v-832q0 -174 67 -262t213 -88q145 0 214 88q69 89 69 262v832h307v-816q0 -306 -150 -468t-440 -162q-288 0 -438 162q-149 161 -149 468v816h307zM513 1799q78 73 189 73q112 0 190 -73q77 -72 77 -175q0 -104 -77 -176q-76 -72 -190 -72q-112 0 -189 72
t-77 176q0 103 77 175zM787 1709q-34 34 -85 34t-85 -34q-33 -33 -33 -85q0 -53 33 -86q35 -35 85 -35t85 35q34 34 34 86q0 51 -34 85z" />
    <glyph glyph-name="uring" unicode="&#x16f;" horiz-adv-x="1191" 
d="M1092 1053v-1053h-256l-27 127q-53 -63 -129 -102q-73 -37 -180 -37q-185 0 -301 113q-117 114 -117 380v572h289v-537q0 -143 50 -216t154 -73q108 0 168 81t60 227v518h289zM398 1555q78 73 190 73q111 0 189 -73q77 -72 77 -175q0 -104 -77 -176q-75 -71 -189 -71
q-115 0 -190 71q-76 72 -76 176q0 103 76 175zM673 1465q-34 34 -85 34t-85 -34t-34 -85q0 -52 34 -86t85 -34t85 34t34 86q0 51 -34 85z" />
    <glyph glyph-name="Uhungarumlaut" unicode="&#x170;" horiz-adv-x="1402" 
d="M420 1434v-832q0 -174 67 -262t213 -88q145 0 214 88q69 89 69 262v832h307v-816q0 -306 -150 -468t-440 -162q-288 0 -438 162q-149 161 -149 468v816h307zM375 1540l149 295h316l-269 -295h-196zM782 1540l152 295h313l-266 -295h-199z" />
    <glyph glyph-name="uhungarumlaut" unicode="&#x171;" horiz-adv-x="1191" 
d="M1092 1053v-1053h-256l-27 127q-53 -63 -129 -102q-73 -37 -180 -37q-185 0 -301 113q-117 114 -117 380v572h289v-537q0 -143 50 -216t154 -73q108 0 168 81t60 227v518h289zM260 1159l150 295h315l-268 -295h-197zM668 1159l151 295h314l-267 -295h-198z" />
    <glyph glyph-name="Uogonek" unicode="&#x172;" horiz-adv-x="1402" 
d="M1290 1434v-816q0 -268 -114 -425t-338 -195q-101 -46 -144 -82q-47 -39 -47 -80q0 -53 68 -53h131v-193h-184q-105 0 -175 55q-69 54 -69 144q0 116 119 215q-208 40 -317 198q-107 155 -107 416v816h307v-832q0 -174 67 -262t213 -88q145 0 214 88q69 89 69 262v832
h307z" />
    <glyph glyph-name="uogonek" unicode="&#x173;" horiz-adv-x="1191" 
d="M1096 -217v-193h-185q-104 0 -174 55q-69 54 -69 144q0 74 43 133q46 64 118 113l-20 92q-53 -63 -129 -102q-73 -37 -180 -37q-185 0 -301 113q-117 114 -117 380v572h289v-537q0 -143 50 -216t154 -73q108 0 168 81t60 227v518h289v-1053q-100 -45 -146 -83
q-49 -40 -49 -81q0 -53 68 -53h131z" />
    <glyph glyph-name="Wcircumflex" unicode="&#x174;" horiz-adv-x="2029" 
d="M18 1434l318 2l264 -1049l281 1047h276l273 -1047l270 1047h311l-397 -1434h-354l-248 952l-242 -952h-354zM1010 1665l-127 -121h-265l263 291h258l262 -291h-266z" />
    <glyph glyph-name="wcircumflex" unicode="&#x175;" horiz-adv-x="1677" 
d="M0 1053h305l211 -742l199 742h260l192 -744l215 744h295l-346 -1053h-307l-184 635l-189 -635h-307zM844 1284l-127 -121h-264l262 291h258l262 -291h-266z" />
    <glyph glyph-name="Ycircumflex" unicode="&#x176;" horiz-adv-x="1359" 
d="M0 1434h358l322 -588l338 588h342l-526 -902v-532h-308v532zM688 1665l-127 -121h-264l262 291h258l262 -291h-266z" />
    <glyph glyph-name="ycircumflex" unicode="&#x177;" horiz-adv-x="1118" 
d="M305 1053l256 -756l250 756h309l-467 -1203q-40 -103 -69 -150q-34 -55 -83 -82q-51 -28 -130 -28h-281v244h160q55 0 80 19q24 18 47 71l26 70l-405 1059h307zM555 1284l-127 -121h-264l262 291h258l262 -291h-266z" />
    <glyph glyph-name="Ydieresis" unicode="&#x178;" horiz-adv-x="1359" 
d="M0 1434h358l322 -588l338 588h342l-526 -902v-532h-308v532zM362 1817q44 43 111 43t110 -43q44 -44 44 -107q0 -62 -44 -106q-43 -43 -110 -43t-111 43q-45 44 -45 106q0 64 45 107zM794 1817q43 43 109 43q67 0 111 -43q45 -43 45 -107q0 -62 -45 -106
q-44 -43 -111 -43q-66 0 -109 43q-44 44 -44 106q0 63 44 107z" />
    <glyph glyph-name="Zacute" unicode="&#x179;" horiz-adv-x="1286" 
d="M74 1434h1138v-203l-735 -969h754v-262h-1176v203l736 968h-717v263zM547 1546l149 289h330l-268 -289h-211z" />
    <glyph glyph-name="zacute" unicode="&#x17a;" horiz-adv-x="1030" 
d="M70 1053h891v-197l-527 -612h551v-244h-940v197l526 612h-501v244zM412 1165l149 289h330l-268 -289h-211z" />
    <glyph glyph-name="Zdotaccent" unicode="&#x17b;" horiz-adv-x="1286" 
d="M74 1434h1138v-203l-735 -969h754v-262h-1176v203l736 968h-717v263zM528 1846q46 46 119 46t119 -46q47 -47 47 -115q0 -69 -47 -116q-46 -46 -119 -46t-119 46q-47 47 -47 116q0 68 47 115z" />
    <glyph glyph-name="zdotaccent" unicode="&#x17c;" horiz-adv-x="1030" 
d="M70 1053h891v-197l-527 -612h551v-244h-940v197l526 612h-501v244zM393 1465q46 46 119 46t119 -46q47 -47 47 -115q0 -69 -47 -116q-46 -46 -119 -46t-119 46q-47 47 -47 116q0 68 47 115z" />
    <glyph glyph-name="Zcaron" unicode="&#x17d;" horiz-adv-x="1286" 
d="M74 1434h1138v-203l-735 -969h754v-262h-1176v203l736 968h-717v263zM647 1714l127 121h264l-262 -291h-258l-262 291h266z" />
    <glyph glyph-name="zcaron" unicode="&#x17e;" horiz-adv-x="1030" 
d="M70 1053h891v-197l-527 -612h551v-244h-940v197l526 612h-501v244zM512 1333l127 121h264l-262 -291h-258l-262 291h266z" />
    <glyph glyph-name="florin" unicode="&#x192;" horiz-adv-x="985" 
d="M680 1096l-27 -312h221v-213h-239l-45 -508q-12 -132 -96 -206q-85 -74 -230 -74h-235v246h180q90 0 96 92l39 450h-209v213h227l33 369q12 133 97 207t229 74h235v-246h-178q-92 0 -98 -92z" />
    <glyph glyph-name="AEacute" unicode="&#x1fc;" horiz-adv-x="2039" 
d="M1860 1835l-269 -289h-211l150 289h330zM1298 264h678v-264h-985v303h-504l-182 -303h-317l839 1434h1127v-265h-656v-321h533v-252h-533v-332zM629 551h362v623z" />
    <glyph glyph-name="aeacute" unicode="&#x1fd;" horiz-adv-x="1863" 
d="M1300 1434l-268 -289h-211l150 289h329zM1034 461v-8q11 -118 73 -182q63 -64 175 -64q85 0 144 38q58 37 79 111h285q-16 -103 -80 -188q-63 -84 -168 -132t-239 -48q-142 0 -251 50q-107 49 -173 144q-71 -98 -173 -146t-241 -48q-178 0 -291 82q-115 83 -115 227
q0 163 124 248q125 86 360 86h209v67q0 71 -54 114q-52 42 -143 42q-79 0 -131 -35t-62 -94h-278q15 163 143 251q130 89 342 89q117 0 215 -37q100 -38 152 -106q62 68 149 106q84 37 189 37q155 0 275 -63q121 -63 188 -177q67 -113 67 -266q0 -52 -8 -98h-762zM1117 796
q-65 -54 -77 -147h476q-15 97 -78 149q-62 52 -162 52q-94 0 -159 -54zM752 446h-199q-99 0 -150 -32q-53 -33 -53 -97q0 -55 42 -88q41 -32 114 -32q114 0 179 61q67 62 67 164v24z" />
    <glyph glyph-name="Scommaaccent" unicode="&#x218;" horiz-adv-x="1280" 
d="M367 467q7 -107 87 -171q80 -65 210 -65q107 0 177 47q68 46 68 128q0 56 -38 91q-36 33 -106 53q-71 20 -212 48q-143 27 -238 69t-156 125q-61 84 -61 220q0 124 69 223q68 98 190 155q119 56 276 56q158 0 283 -58q127 -59 199 -161q74 -104 75 -232h-301
q-11 92 -78 149q-66 56 -178 56q-103 0 -164 -43t-61 -123q0 -59 36 -89q38 -31 105 -51q61 -18 209 -46q143 -27 241 -67q100 -41 159 -121q61 -82 61 -216q0 -130 -72 -234q-71 -102 -200 -163q-125 -59 -288 -59q-175 0 -306 62q-135 63 -210 173t-77 248zM504 -98h280
l-174 -301h-215z" />
    <glyph glyph-name="scommaaccent" unicode="&#x219;" horiz-adv-x="1105" 
d="M336 350q6 -69 67 -112t158 -43q95 0 146 29q53 30 53 85q0 40 -25 62q-23 20 -69 29q-56 11 -148 22q-137 18 -231 47q-93 29 -148 90t-55 164t56 181t159 122q101 43 236 43q214 -1 347 -92q131 -90 142 -250h-274q-6 59 -63 97q-58 38 -144 38q-81 0 -132 -31t-51 -81
q0 -38 27 -56q28 -19 70 -26q60 -10 143 -19q211 -24 327 -91q113 -65 113 -228q0 -102 -60 -180t-168 -120t-249 -42q-220 0 -356 97q-139 99 -146 265h275zM416 -100h280l-174 -301h-215z" />
    <glyph glyph-name="uni021A" unicode="&#x21a;" horiz-adv-x="1224" 
d="M45 1434h1135v-265h-414v-1169h-307v1169h-414v265zM465 -98h280l-174 -301h-215z" />
    <glyph glyph-name="uni021B" unicode="&#x21b;" horiz-adv-x="729" 
d="M168 809h-174v244h174v295h289v-295h239v-244h-239v-461q0 -57 23 -80q24 -24 79 -24h150v-244h-240q-301 0 -301 301v508zM297 -98h281l-175 -301h-215z" />
    <glyph glyph-name="uni0237" unicode="&#x237;" horiz-adv-x="499" 
d="M6 -166q53 0 79 28t26 89v1102h288v-1143q0 -151 -77 -235q-78 -85 -226 -85h-190v244h100z" />
    <glyph glyph-name="uni02BC" unicode="&#x2bc;" horiz-adv-x="774" 
d="M297 1434h270l-139 -304h-203z" />
    <glyph glyph-name="circumflex" unicode="&#x2c6;" horiz-adv-x="819" 
d="M410 1264l-127 -121h-265l263 291h258l262 -291h-266z" />
    <glyph glyph-name="caron" unicode="&#x2c7;" horiz-adv-x="819" 
d="M410 1313l127 121h264l-262 -291h-258l-263 291h267z" />
    <glyph glyph-name="breve" unicode="&#x2d8;" horiz-adv-x="819" 
d="M297 1434q0 -53 31 -84t82 -31q48 0 80 32t32 83h207q-6 -136 -95 -219q-88 -82 -231 -82q-136 0 -221 82q-86 83 -92 219h207z" />
    <glyph glyph-name="dotaccent" unicode="&#x2d9;" horiz-adv-x="819" 
d="M291 1445q46 46 119 46q72 0 118 -46q47 -47 47 -116t-47 -116q-46 -46 -118 -46q-73 0 -119 46q-47 47 -47 116t47 116z" />
    <glyph glyph-name="ring" unicode="&#x2da;" horiz-adv-x="819" 
d="M220 1535q78 73 190 73q111 0 189 -73q77 -72 77 -175q0 -104 -77 -176t-189 -72q-114 0 -190 72q-77 72 -77 176q0 103 77 175zM495 1445q-34 34 -85 34t-85 -34t-34 -85q0 -52 34 -86q35 -35 85 -35t85 35q33 33 33 86q0 52 -33 85z" />
    <glyph glyph-name="ogonek" unicode="&#x2db;" horiz-adv-x="819" 
d="M32 -72q47 62 130 117l248 -45q-100 -45 -146 -83q-49 -40 -49 -81q0 -53 68 -53h131v-193h-185q-104 0 -174 55q-69 54 -69 144q0 78 46 139z" />
    <glyph glyph-name="tilde" unicode="&#x2dc;" horiz-adv-x="819" 
d="M275 1232q-19 -23 -19 -56h-168v41q0 93 54 156t141 63q41 0 71 -14q28 -13 62 -38q23 -19 40 -27q18 -9 40 -9q31 0 49 22t18 57h168v-43q0 -94 -55 -156q-56 -63 -139 -63q-45 0 -75 15q-33 17 -63 41q-24 18 -40 26t-33 8q-32 0 -51 -23z" />
    <glyph glyph-name="hungarumlaut" unicode="&#x2dd;" horiz-adv-x="821" 
d="M82 1139l149 295h316l-268 -295h-197zM489 1139l152 295h313l-266 -295h-199z" />
    <glyph glyph-name="gravecomb" unicode="&#x300;" horiz-adv-x="0" 
d="M-780 1434h329l144 -295h-217z" />
    <glyph glyph-name="acutecomb" unicode="&#x301;" horiz-adv-x="0" 
d="M-510 1145l150 289h329l-268 -289h-211z" />
    <glyph glyph-name="uni0302" unicode="&#x302;" horiz-adv-x="0" 
d="M-410 1264l-127 -121h-264l262 291h258l263 -291h-267z" />
    <glyph glyph-name="tildecomb" unicode="&#x303;" horiz-adv-x="0" 
d="M-544 1232q-19 -23 -19 -56h-168v41q0 93 54 156t140 63q42 0 72 -14q28 -13 62 -38q25 -20 39 -27q18 -9 40 -9q32 0 50 22t18 57h168v-43q0 -94 -55 -156q-56 -63 -140 -63q-44 0 -74 15q-33 17 -63 41q-24 18 -40 26t-34 8q-31 0 -50 -23z" />
    <glyph glyph-name="uni0304" unicode="&#x304;" horiz-adv-x="0" 
d="M-727 1206v205h637v-205h-637z" />
    <glyph glyph-name="uni0306" unicode="&#x306;" horiz-adv-x="0" 
d="M-522 1434q0 -54 30 -84q31 -31 82 -31q49 0 81 32t32 83h207q-6 -136 -95 -219q-88 -82 -231 -82q-136 0 -221 82q-86 83 -92 219h207z" />
    <glyph glyph-name="uni0307" unicode="&#x307;" horiz-adv-x="0" 
d="M-528 1445q46 46 118 46q73 0 119 -46q47 -47 47 -116t-47 -116q-46 -46 -119 -46q-72 0 -118 46q-47 47 -47 116t47 116z" />
    <glyph glyph-name="uni0308" unicode="&#x308;" horiz-adv-x="0" 
d="M-735 1415q44 43 110 43q67 0 110 -43q44 -44 44 -106q0 -63 -44 -107q-43 -43 -110 -43q-66 0 -110 43q-45 44 -45 107t45 106zM-304 1415q43 43 109 43q67 0 111 -43q45 -43 45 -106t-45 -107q-44 -43 -111 -43q-66 0 -109 43q-44 44 -44 107q0 62 44 106z" />
    <glyph glyph-name="uni030A" unicode="&#x30a;" horiz-adv-x="0" 
d="M-599 1535q78 73 189 73q112 0 190 -73q77 -72 77 -175q0 -104 -77 -176q-76 -72 -190 -72q-112 0 -189 72t-77 176q0 103 77 175zM-325 1445q-34 34 -85 34t-85 -34q-33 -33 -33 -85q0 -53 33 -86q35 -35 85 -35t85 35q34 34 34 86q0 51 -34 85z" />
    <glyph glyph-name="uni030B" unicode="&#x30b;" horiz-adv-x="0" 
d="M-737 1139l149 295h316l-269 -295h-196zM-330 1139l152 295h313l-266 -295h-199z" />
    <glyph glyph-name="uni030C" unicode="&#x30c;" horiz-adv-x="0" 
d="M-410 1313l127 121h265l-263 -291h-258l-262 291h266z" />
    <glyph glyph-name="uni0312" unicode="&#x312;" horiz-adv-x="0" 
d="M-285 1135h-280l170 299h219z" />
    <glyph glyph-name="uni0326" unicode="&#x326;" horiz-adv-x="0" 
d="M-557 -98h281l-175 -301h-215z" />
    <glyph glyph-name="uni0327" unicode="&#x327;" horiz-adv-x="0" 
d="M-319 66l-33 -127h35q87 0 136 -42q50 -42 50 -116q0 -88 -60 -139q-61 -52 -163 -52h-244v142h188q60 0 60 51q0 21 -17 33t-43 12h-120l59 238h152z" />
    <glyph glyph-name="uni0328" unicode="&#x328;" horiz-adv-x="0" 
d="M-787 -72q47 62 130 117l247 -45q-98 -44 -145 -83q-49 -40 -49 -81q0 -53 67 -53h131v-193h-184q-104 0 -174 55t-70 144q0 77 47 139z" />
    <glyph glyph-name="pi" unicode="&#x3c0;" horiz-adv-x="1273" 
d="M1249 1053v-246h-135v-807h-289v807h-376v-807h-289v807h-135v246h1224z" />
    <glyph glyph-name="uni0E3F" unicode="&#xe3f;" horiz-adv-x="1345" 
d="M1127 111q-143 -110 -396 -111v-199h-162v199h-446v1434h446v211h162v-211q236 -8 361 -107t125 -270q0 -132 -74 -215t-209 -107q159 -21 246 -102q88 -82 88 -230q0 -184 -141 -292zM430 1192v-348h139v348h-139zM868 1142q-45 45 -137 50v-348q92 5 137 50
q47 47 47 124t-47 124zM430 244h139v362h-139v-362zM894 294q58 48 58 128q0 84 -58 132q-58 47 -163 52v-362q104 1 163 50z" />
    <glyph glyph-name="Wgrave" unicode="&#x1e80;" horiz-adv-x="2029" 
d="M18 1434l318 2l264 -1049l281 1047h276l273 -1047l270 1047h311l-397 -1434h-354l-248 952l-242 -952h-354zM639 1835h330l143 -295h-217z" />
    <glyph glyph-name="wgrave" unicode="&#x1e81;" horiz-adv-x="1677" 
d="M0 1053h305l211 -742l199 742h260l192 -744l215 744h295l-346 -1053h-307l-184 635l-189 -635h-307zM473 1454h330l143 -295h-217z" />
    <glyph glyph-name="Wacute" unicode="&#x1e82;" horiz-adv-x="2029" 
d="M18 1434l318 2l264 -1049l281 1047h276l273 -1047l270 1047h311l-397 -1434h-354l-248 952l-242 -952h-354zM909 1546l150 289h330l-269 -289h-211z" />
    <glyph glyph-name="wacute" unicode="&#x1e83;" horiz-adv-x="1677" 
d="M0 1053h305l211 -742l199 742h260l192 -744l215 744h295l-346 -1053h-307l-184 635l-189 -635h-307zM743 1165l150 289h330l-269 -289h-211z" />
    <glyph glyph-name="Wdieresis" unicode="&#x1e84;" horiz-adv-x="2029" 
d="M18 1434l318 2l264 -1049l281 1047h276l273 -1047l270 1047h311l-397 -1434h-354l-248 952l-242 -952h-354zM684 1817q44 43 111 43q66 0 109 -43q44 -44 44 -107q0 -62 -44 -106q-43 -43 -109 -43q-67 0 -111 43q-45 43 -45 106q0 64 45 107zM1115 1817q43 43 110 43
q66 0 110 -43q45 -43 45 -107q0 -62 -45 -106q-44 -43 -110 -43q-67 0 -110 43q-44 44 -44 106q0 63 44 107z" />
    <glyph glyph-name="wdieresis" unicode="&#x1e85;" horiz-adv-x="1677" 
d="M0 1053h305l211 -742l199 742h260l192 -744l215 744h295l-346 -1053h-307l-184 635l-189 -635h-307zM518 1436q44 43 111 43q66 0 109 -43q44 -44 44 -107q0 -62 -44 -106q-43 -43 -109 -43q-67 0 -111 43q-45 43 -45 106t45 107zM949 1436q43 43 110 43q66 0 110 -43
q45 -43 45 -107q0 -63 -45 -106q-44 -43 -110 -43q-67 0 -110 43q-44 44 -44 106q0 63 44 107z" />
    <glyph glyph-name="Ygrave" unicode="&#x1ef2;" horiz-adv-x="1359" 
d="M0 1434h358l322 -588l338 588h342l-526 -902v-532h-308v532zM317 1835h330l144 -295h-218z" />
    <glyph glyph-name="ygrave" unicode="&#x1ef3;" horiz-adv-x="1118" 
d="M305 1053l256 -756l250 756h309l-467 -1203q-40 -103 -69 -150q-34 -55 -83 -82q-51 -28 -130 -28h-281v244h160q55 0 80 19q24 18 47 71l26 70l-405 1059h307zM184 1454h330l143 -295h-217z" />
    <glyph glyph-name="endash" unicode="&#x2013;" 
d="M82 465v233h1065v-233h-1065z" />
    <glyph glyph-name="emdash" unicode="&#x2014;" horiz-adv-x="1894" 
d="M82 700h1730v-233h-1730v233z" />
    <glyph glyph-name="quoteleft" unicode="&#x2018;" horiz-adv-x="507" 
d="M119 900q-60 75 -60 194q0 169 103 260t280 92v-150q-94 -1 -144 -41q-50 -39 -50 -98q0 -19 2 -29q34 17 65 17q60 0 100 -40t40 -116q0 -68 -53 -116q-52 -48 -128 -48q-95 0 -155 75z" />
    <glyph glyph-name="quoteright" unicode="&#x2019;" horiz-adv-x="507" 
d="M389 1371q60 -75 60 -193q0 -169 -103 -260q-104 -92 -280 -93v150q94 1 144 41q50 39 50 98q0 19 -2 29q-34 -17 -65 -17q-60 0 -100 40t-40 116q0 68 52 116q53 48 128 48q96 0 156 -75z" />
    <glyph glyph-name="quotesinglbase" unicode="&#x201a;" horiz-adv-x="507" 
d="M389 249q60 -75 60 -194q0 -169 -103 -260t-280 -92v150q94 1 144 41q50 39 50 98q0 18 -2 28q-32 -16 -65 -16q-60 0 -100 40t-40 116q0 67 52 115q54 49 128 49q96 0 156 -75z" />
    <glyph glyph-name="quotedblleft" unicode="&#x201c;" horiz-adv-x="950" 
d="M119 900q-60 75 -60 194q0 169 103 260t280 92v-150q-94 -1 -144 -41q-50 -39 -50 -98q0 -19 2 -29q34 17 65 17q60 0 100 -40t40 -116q0 -68 -53 -116q-52 -48 -128 -48q-95 0 -155 75zM563 900q-59 74 -59 194q0 170 102 260q103 91 281 92v-150q-95 -2 -145 -41
t-50 -98q0 -19 2 -29q34 17 66 17q59 0 99 -40t40 -116q0 -68 -52 -116q-53 -48 -128 -48q-96 0 -156 75z" />
    <glyph glyph-name="quotedblright" unicode="&#x201d;" horiz-adv-x="950" 
d="M389 1371q60 -75 60 -193q0 -169 -103 -260q-104 -92 -280 -93v150q94 1 144 41q50 39 50 98q0 19 -2 29q-34 -17 -65 -17q-60 0 -100 40t-40 116q0 68 52 116q53 48 128 48q96 0 156 -75zM834 1371q59 -74 59 -193q0 -171 -102 -261q-103 -91 -281 -92v150q94 1 144 41
q51 40 51 98q0 14 -3 29q-34 -17 -65 -17q-59 0 -99 40t-40 116q0 68 52 116t128 48q96 0 156 -75z" />
    <glyph glyph-name="quotedblbase" unicode="&#x201e;" horiz-adv-x="950" 
d="M389 249q60 -75 60 -194q0 -169 -103 -260t-280 -92v150q94 1 144 41q50 39 50 98q0 18 -2 28q-32 -16 -65 -16q-60 0 -100 40t-40 116q0 67 52 115q54 49 128 49q96 0 156 -75zM834 249q59 -74 59 -194q0 -170 -102 -260q-103 -91 -281 -92v150q95 2 144 40q51 40 51 99
q0 13 -3 28q-32 -16 -65 -16q-59 0 -99 40t-40 116q0 67 52 115q54 49 128 49q96 0 156 -75z" />
    <glyph glyph-name="dagger" unicode="&#x2020;" horiz-adv-x="1062" 
d="M1012 1038v-235h-353v-803h-256v803h-352v235h352v396h256v-396h353z" />
    <glyph glyph-name="daggerdbl" unicode="&#x2021;" horiz-adv-x="1161" 
d="M1077 881h-366v-328h366v-234h-366v-319h-258v319h-369v234h369v328h-369v233h369v320h258v-320h366v-233z" />
    <glyph glyph-name="bullet" unicode="&#x2022;" horiz-adv-x="921" 
d="M165 857q43 75 122 117q78 42 174 42t174 -42q79 -42 122 -117q44 -76 44 -171t-44 -172q-43 -75 -122 -118q-78 -42 -174 -42t-174 42q-79 43 -122 118q-44 77 -44 172t44 171z" />
    <glyph glyph-name="ellipsis" unicode="&#x2026;" horiz-adv-x="1474" 
d="M129 282q49 48 125 48q75 0 124 -49q50 -50 50 -123q0 -74 -50 -122t-124 -48q-76 0 -125 48t-49 122q0 76 49 124zM612 282q50 48 125 48t124 -49q50 -50 50 -123q0 -74 -50 -122q-49 -48 -124 -48t-125 48q-49 48 -49 122q0 76 49 124zM1096 282q50 48 125 48t124 -49
q50 -50 50 -123q0 -74 -50 -122q-49 -48 -124 -48t-125 48q-49 48 -49 122q0 76 49 124z" />
    <glyph glyph-name="perthousand" unicode="&#x2030;" horiz-adv-x="2736" 
d="M141 1273q50 81 134 127q85 46 192 46t192 -46q88 -48 135 -127q48 -81 48 -181q0 -101 -48 -182q-47 -79 -135 -127q-85 -46 -192 -46t-192 46q-84 46 -134 127q-49 80 -49 182q0 101 49 181zM324 0l983 1434h284l-983 -1434h-284zM569 1196q-41 41 -102 41
q-59 0 -100 -41t-41 -104q0 -64 41 -105t100 -41q61 0 102 41t41 105q0 63 -41 104zM1119 523q47 80 134 127q85 46 193 46q106 0 191 -46q86 -47 135 -127t49 -181t-49 -181t-135 -127q-85 -46 -191 -46q-108 0 -193 46q-87 47 -134 127q-48 81 -48 181t48 181zM1944 523
q50 81 134 127q85 46 191 46q108 0 193 -46q87 -47 134 -127q48 -81 48 -181t-48 -181q-47 -80 -134 -127q-85 -46 -193 -46q-106 0 -191 46q-84 46 -134 127q-50 82 -50 181t50 181zM1546 445q-40 42 -100 42q-62 0 -103 -42q-40 -41 -40 -103q0 -64 40 -104
q41 -41 103 -41q59 0 100 41t41 104q0 60 -41 103zM2372 445q-40 42 -103 42q-59 0 -100 -42q-41 -43 -41 -103q0 -63 41 -104t100 -41q62 0 103 41t41 104q0 60 -41 103z" />
    <glyph glyph-name="guilsinglleft" unicode="&#x2039;" horiz-adv-x="731" 
d="M664 1053l-308 -527l308 -526h-291l-312 526l312 527h291z" />
    <glyph glyph-name="guilsinglright" unicode="&#x203a;" horiz-adv-x="731" 
d="M68 1053h290l312 -527l-312 -526h-290l307 526z" />
    <glyph glyph-name="uni2042" unicode="&#x2042;" horiz-adv-x="2015" 
d="M1380 1204l-235 -84l162 -178l-152 -129l-154 215l-151 -213l-152 129l164 178l-235 86l80 181l206 -107l-8 234h195l-8 -236l206 106zM877 293l-236 -84l162 -178l-152 -129l-153 215l-152 -213l-151 129l163 178l-235 86l80 180l207 -106l-9 233h195l-8 -235l207 106z
M1892 293l-235 -84l162 -178l-152 -129l-154 215l-151 -213l-152 129l164 178l-235 86l80 180l206 -106l-8 233h195l-8 -235l206 106z" />
    <glyph glyph-name="fraction" unicode="&#x2044;" horiz-adv-x="401" 
d="M-369 0l908 1434h231l-907 -1434h-232z" />
    <glyph glyph-name="uni2051" unicode="&#x2051;" horiz-adv-x="999" 
d="M877 1204l-236 -84l162 -178l-152 -129l-153 215l-152 -213l-151 129l163 178l-235 86l80 181l207 -107l-9 234h195l-8 -236l207 106zM877 287l-236 -84l162 -178l-152 -129l-153 215l-152 -213l-151 129l163 178l-235 86l80 180l207 -106l-9 233h195l-8 -236l207 107z
" />
    <glyph glyph-name="uni2070" unicode="&#x2070;" horiz-adv-x="712" 
d="M122 1549q86 104 234 104q150 0 236 -104t86 -281q0 -178 -86 -282q-85 -103 -236 -103q-149 0 -234 103t-85 282q0 178 85 281zM446 1423q-34 58 -90 58t-90 -58q-33 -57 -33 -155q0 -100 33 -157q32 -56 90 -56t90 56q33 57 33 157q0 98 -33 155z" />
    <glyph glyph-name="uni2074" unicode="&#x2074;" horiz-adv-x="722" 
d="M336 1638h242v-411h110v-170h-110v-164h-191v164h-352v170zM387 1452l-166 -225h166v225z" />
    <glyph glyph-name="uni2075" unicode="&#x2075;" horiz-adv-x="651" 
d="M575 1473h-348l-8 -130q59 54 146 54q112 0 181 -69q68 -68 68 -181q0 -120 -79 -193t-209 -73q-121 0 -196 65q-76 66 -87 174h190q6 -31 32 -49q25 -18 63 -18q39 0 64 25q26 26 26 69q0 42 -26 68t-66 26q-31 2 -53 -12q-23 -14 -35 -39h-185l21 448h501v-165z" />
    <glyph glyph-name="uni2076" unicode="&#x2076;" horiz-adv-x="677" 
d="M123 1544q91 109 237 109q106 0 185 -62q77 -61 94 -168h-186q-7 36 -36 60q-26 22 -69 22q-62 0 -99 -55q-38 -56 -38 -133v-35q22 47 62 73q42 27 108 27q120 0 191 -67q73 -68 73 -180q0 -114 -80 -183q-79 -69 -213 -69q-149 0 -234 101t-85 271q0 181 90 289z
M426 1207q-30 28 -74 28q-43 0 -73 -28q-29 -27 -29 -72q0 -44 28 -72q27 -27 74 -27q48 0 75 27q28 28 28 72q0 45 -29 72z" />
    <glyph glyph-name="uni2077" unicode="&#x2077;" horiz-adv-x="616" 
d="M31 1638h559v-155l-285 -592h-213l285 579h-346v168z" />
    <glyph glyph-name="uni2078" unicode="&#x2078;" horiz-adv-x="694" 
d="M72 1217q38 47 110 69q-63 28 -92 67q-31 42 -31 101q0 88 78 143q79 56 211 56t212 -56q79 -55 79 -143q0 -62 -32 -102q-32 -39 -91 -66q71 -22 109 -69q37 -46 37 -113q0 -98 -84 -160q-83 -61 -230 -61q-146 0 -229 61q-84 62 -84 160q0 67 37 113zM422 1489
q-28 22 -74 22q-44 0 -72 -22t-28 -59q0 -38 28 -60t72 -22q49 0 75 22q28 23 28 60q0 36 -29 59zM431 1185q-31 25 -83 25q-50 0 -82 -25q-33 -25 -33 -65q0 -36 33 -62q34 -26 82 -26t82 26q33 26 33 62q0 39 -32 65z" />
    <glyph glyph-name="uni2079" unicode="&#x2079;" horiz-adv-x="677" 
d="M555 991q-90 -108 -238 -108q-107 0 -184 61t-94 168h186q7 -35 36 -59q28 -23 69 -23q63 0 100 52t37 137v34q-46 -100 -172 -100q-118 0 -191 68q-71 67 -71 180t80 182q81 70 213 70q148 0 234 -102q85 -101 85 -271q0 -181 -90 -289zM252 1328q30 -28 74 -28
q43 0 73 28q29 27 29 73q0 44 -28 72q-26 26 -74 26q-49 0 -75 -26q-28 -28 -28 -72q0 -46 29 -73z" />
    <glyph glyph-name="uni2080" unicode="&#x2080;" horiz-adv-x="712" 
d="M122 450q85 103 234 103q151 0 236 -103q86 -104 86 -282t-86 -282q-85 -103 -236 -103q-149 0 -234 103t-85 282t85 282zM446 324q-33 57 -90 57t-90 -57t-33 -156q0 -100 33 -157q32 -56 90 -56t90 56q33 57 33 157q0 99 -33 156z" />
    <glyph glyph-name="uni2081" unicode="&#x2081;" horiz-adv-x="415" 
d="M166 -205v443q-18 -7 -39 -7h-127v175h117q24 0 39 21q14 20 14 52v62h188v-746h-192z" />
    <glyph glyph-name="uni2082" unicode="&#x2082;" horiz-adv-x="669" 
d="M33 270q0 127 84 205t209 78q134 0 218 -70q83 -69 83 -182q0 -77 -37 -126q-38 -50 -101 -95l-151 -109h297v-176h-594v166l299 207q37 27 61 59q23 31 23 70q0 36 -27 60t-69 24q-48 0 -75 -30q-28 -31 -28 -89v-6h-192v14z" />
    <glyph glyph-name="uni2083" unicode="&#x2083;" horiz-adv-x="688" 
d="M133 486q79 67 215 67q132 0 209 -57q76 -57 76 -150q0 -62 -36 -102q-37 -42 -89 -58q67 -15 106 -58q39 -44 39 -112q0 -108 -84 -171q-83 -62 -231 -62q-149 0 -228 69q-80 69 -81 197h196q6 -98 111 -98q47 0 77 21q29 20 29 59q0 38 -29 58q-31 22 -85 22h-41v129
h45q46 0 74 19t28 52q0 35 -24 55q-23 19 -66 19q-44 0 -72 -23q-27 -22 -28 -61h-193q5 119 82 185z" />
    <glyph glyph-name="uni2084" unicode="&#x2084;" horiz-adv-x="722" 
d="M336 541h242v-412h110v-170h-110v-164h-191v164h-352v170zM387 354l-166 -225h166v225z" />
    <glyph glyph-name="uni2085" unicode="&#x2085;" horiz-adv-x="651" 
d="M575 375h-348l-8 -129q58 53 146 53q112 0 181 -69q68 -68 68 -181q0 -119 -79 -192q-80 -74 -209 -74q-121 0 -196 65q-76 66 -87 175h190q6 -32 32 -50q25 -18 63 -18t64 26t26 68q0 43 -26 69q-25 25 -66 25q-31 2 -53 -12q-23 -14 -35 -39h-185l21 449h501v-166z" />
    <glyph glyph-name="uni2086" unicode="&#x2086;" horiz-adv-x="677" 
d="M123 444q91 109 237 109q108 0 185 -61t94 -168h-186q-7 35 -36 59q-28 23 -69 23q-61 0 -99 -56t-38 -133v-35q22 47 62 73q44 28 108 28q118 0 191 -68t73 -180q0 -113 -80 -182q-81 -70 -213 -70q-149 0 -234 101t-85 272q0 180 90 288zM426 108q-28 27 -74 27
q-44 0 -73 -27t-29 -73q0 -44 28 -72q26 -26 74 -26q49 0 75 26q28 28 28 72q0 46 -29 73z" />
    <glyph glyph-name="uni2087" unicode="&#x2087;" horiz-adv-x="616" 
d="M31 543h559v-156l-285 -592h-213l285 580h-346v168z" />
    <glyph glyph-name="uni2088" unicode="&#x2088;" horiz-adv-x="694" 
d="M72 117q38 47 110 69q-63 28 -92 67q-31 42 -31 101q0 88 78 144q77 55 211 55q133 0 212 -55t79 -144q0 -62 -32 -102q-32 -39 -91 -66q71 -22 109 -69q37 -46 37 -113q0 -98 -84 -160q-83 -61 -230 -61q-146 0 -229 61q-84 62 -84 160q0 67 37 113zM422 389
q-29 23 -74 23q-43 0 -72 -23q-28 -22 -28 -59q0 -38 28 -60t72 -22q49 0 75 22q28 23 28 60q0 36 -29 59zM431 85q-32 26 -83 26q-48 0 -82 -26q-33 -25 -33 -65q0 -37 33 -62q34 -26 82 -26t82 26q33 25 33 62q0 39 -32 65z" />
    <glyph glyph-name="uni2089" unicode="&#x2089;" horiz-adv-x="677" 
d="M555 -109q-90 -108 -238 -108q-107 0 -184 61t-94 168h186q7 -35 36 -59q28 -23 69 -23q62 0 100 53q37 52 37 136v35q-47 -101 -172 -101q-118 0 -191 68q-71 67 -71 180t80 182q81 70 213 70q149 0 234 -101t85 -272q0 -181 -90 -289zM252 228q28 -27 74 -27
q44 0 73 27t29 73q0 44 -28 72q-26 26 -74 26q-49 0 -75 -26q-28 -28 -28 -72q0 -46 29 -73z" />
    <glyph glyph-name="franc" unicode="&#x20a3;" horiz-adv-x="1161" 
d="M1118 1169h-639v-335h525v-252h-525v-181h248v-208h-248v-193h-307v193h-174v208h174v1033h946v-265z" />
    <glyph glyph-name="uni20A8" unicode="&#x20a8;" horiz-adv-x="1241" 
d="M1196 1434l-33 -179h-323q74 -91 92 -208h233l-35 -179h-198q-18 -105 -81 -188q-63 -82 -157 -127l281 -553h-338l-242 481h-272v250h264q83 0 139 37q58 38 80 100h-483v179h483q-22 60 -80 98q-56 37 -137 37h-266v252h1073z" />
    <glyph glyph-name="Euro" unicode="&#x20ac;" horiz-adv-x="1384" 
d="M43 489v179h127q-2 14 -2 51q0 21 2 43h-127v176h139q41 237 193 373q151 135 381 135q256 0 407 -142t168 -391h-301q-16 133 -84 207t-178 74q-107 0 -180 -67q-72 -66 -99 -189h326l-33 -176h-311v-41q0 -37 2 -53h289l-35 -179h-238q28 -120 101 -185q71 -64 178 -64
q111 0 178 73q68 73 84 207h301q-17 -248 -168 -390t-405 -142q-231 0 -383 133q-154 135 -193 368h-139z" />
    <glyph glyph-name="uni20BF" unicode="&#x20bf;" horiz-adv-x="1335" 
d="M387 1434v213h186v-213h123v213h185v-230q154 -30 239 -124q84 -93 84 -236q0 -132 -74 -215t-206 -107q159 -21 244 -102q87 -83 87 -230q0 -153 -97 -253q-98 -101 -277 -134v-213h-185v197h-123v-197h-186v197h-264v1434h264zM430 844h264q99 0 151 46t52 128t-51 128
q-50 46 -152 46h-264v-348zM430 244h277q110 0 172 47q61 46 61 131q0 89 -62 136q-63 48 -171 48h-277v-362z" />
    <glyph glyph-name="trademark" unicode="&#x2122;" horiz-adv-x="1460" 
d="M92 1434h490v-138h-170v-411h-148v411h-172v138zM643 1434h209l152 -359l143 359h205v-549h-146v354l-153 -354h-111l-154 354v-354h-145v549z" />
    <glyph glyph-name="uni2126" unicode="&#x2126;" horiz-adv-x="1497" 
d="M860 381q141 89 194 190q54 102 54 246q0 106 -47 192q-46 85 -130 132q-83 47 -186 47q-101 0 -183 -47q-80 -46 -127 -132q-46 -85 -46 -192q0 -144 54 -246t194 -192v-379h-539v264h326v39q-185 63 -267 199q-81 135 -81 332q0 191 85 328q87 140 237 211
q155 73 347 73q198 0 353 -73q153 -72 239 -211t86 -326q0 -198 -85 -335q-86 -138 -265 -198v-39h328v-264h-541v381z" />
    <glyph glyph-name="uni2153" unicode="&#x2153;" horiz-adv-x="1476" 
d="M166 688v442q-16 -6 -39 -6h-127v174h117q23 0 39 22q14 20 14 52v62h188v-746h-192zM47 0l907 1434h232l-907 -1434h-232zM936 691q79 67 215 67q131 0 209 -58q76 -57 76 -149q0 -61 -36 -102q-37 -42 -89 -58q67 -15 106 -58t39 -112q0 -108 -84 -171
q-83 -62 -231 -62q-151 0 -229 68q-80 69 -81 198h197q6 -98 111 -98q46 0 76 21t30 59q0 37 -30 58t-85 21h-40v129h45q44 0 73 20t29 52q0 34 -25 54t-65 20q-44 0 -72 -23q-27 -22 -28 -61h-193q5 119 82 185z" />
    <glyph glyph-name="uni2155" unicode="&#x2155;" horiz-adv-x="1449" 
d="M166 688v442q-16 -6 -39 -6h-127v174h117q23 0 39 22q14 20 14 52v62h188v-746h-192zM47 0l907 1434h232l-907 -1434h-232zM1391 580h-349l-8 -129q58 53 146 53q112 0 181 -69t69 -181q0 -119 -80 -193q-79 -73 -209 -73q-121 0 -196 65q-77 66 -87 174h191
q6 -32 31 -49q26 -18 63 -18q39 0 64 25q26 26 26 69t-26 69q-25 25 -66 25q-30 2 -52 -12q-24 -15 -36 -39h-185l21 448h502v-165z" />
    <glyph glyph-name="uni2156" unicode="&#x2156;" horiz-adv-x="1701" 
d="M33 1163q0 127 84 205t209 78q134 0 218 -70q83 -69 83 -182q0 -77 -37 -126q-38 -50 -101 -95l-151 -109h297v-176h-594v166l299 207q37 27 61 59q23 31 23 70q0 36 -27 60t-69 24q-48 0 -75 -30q-28 -31 -28 -89v-6h-192v14zM301 0l907 1434h232l-908 -1434h-231z
M1645 580h-349l-8 -129q58 53 146 53q112 0 181 -69q68 -68 68 -181q0 -120 -79 -193t-209 -73q-121 0 -196 65q-77 66 -87 174h191q6 -32 31 -49q26 -18 63 -18q39 0 64 25q26 26 26 69t-26 69q-25 25 -66 25q-31 2 -53 -12q-23 -14 -35 -39h-185l21 448h502v-165z" />
    <glyph glyph-name="uni2157" unicode="&#x2157;" horiz-adv-x="1720" 
d="M133 1381q79 67 215 67q132 0 209 -57q76 -57 76 -150q0 -61 -36 -102q-37 -42 -89 -58q67 -15 106 -58t39 -112q0 -108 -84 -171q-83 -62 -231 -62q-150 0 -228 68q-80 69 -81 198h196q6 -98 111 -98q47 0 77 21q29 20 29 59q0 38 -29 58q-31 22 -85 22h-41v129h45
q46 0 74 19t28 52q0 36 -24 55q-23 19 -66 19q-44 0 -72 -23q-27 -22 -28 -61h-193q5 119 82 185zM319 0l908 1434h231l-907 -1434h-232zM1663 580h-348l-8 -129q58 53 145 53q112 0 181 -69t69 -181q0 -119 -80 -193q-79 -73 -209 -73q-120 0 -195 65q-76 66 -87 174h190
q6 -31 32 -49q25 -18 62 -18q40 0 65 25t25 69t-25 69t-67 25q-30 2 -52 -12q-24 -15 -36 -39h-184l20 448h502v-165z" />
    <glyph glyph-name="uni2158" unicode="&#x2158;" horiz-adv-x="1755" 
d="M336 1434h242v-412h110v-170h-110v-164h-191v164h-352v170zM387 1247l-166 -225h166v225zM354 0l908 1434h231l-907 -1434h-232zM1698 580h-348l-9 -129q58 53 146 53q112 0 181 -69t69 -181q0 -119 -80 -193q-79 -73 -209 -73q-121 0 -196 65q-76 66 -87 174h191
q6 -31 32 -49t62 -18q39 0 64 25q26 26 26 69t-26 69q-25 25 -66 25q-30 2 -52 -12q-24 -15 -36 -39h-184l20 448h502v-165z" />
    <glyph glyph-name="uni2159" unicode="&#x2159;" horiz-adv-x="1435" 
d="M166 688v442q-16 -6 -39 -6h-127v174h117q23 0 39 22q14 20 14 52v62h188v-746h-192zM47 0l907 1434h232l-907 -1434h-232zM895 649q91 109 238 109q105 0 184 -62q77 -61 94 -168h-186q-7 36 -36 60q-26 22 -69 22q-62 0 -99 -55q-38 -56 -38 -133v-35q22 46 63 73
q42 27 107 27q121 0 192 -67q72 -68 72 -180q0 -114 -80 -183q-79 -69 -213 -69q-149 0 -234 101t-85 271q0 181 90 289zM1198 312q-30 28 -74 28q-43 0 -73 -28q-29 -27 -29 -72q0 -44 28 -72q27 -27 74 -27q48 0 75 27q28 28 28 72q0 45 -29 72z" />
    <glyph glyph-name="oneeighth" unicode="&#x215b;" horiz-adv-x="1468" 
d="M166 688v442q-16 -6 -39 -6h-127v174h117q23 0 39 22q14 20 14 52v62h188v-746h-192zM47 0l907 1434h232l-907 -1434h-232zM858 322q38 46 111 69q-63 28 -92 67q-31 42 -31 101q0 87 78 143q79 56 211 56t212 -56q78 -54 78 -143q0 -64 -31 -102q-32 -39 -91 -66
q70 -22 108 -69q37 -46 37 -113q0 -99 -84 -160q-83 -61 -229 -61q-147 0 -230 61q-84 62 -84 160q0 67 37 113zM1208 594q-28 22 -73 22q-44 0 -72 -22q-29 -23 -29 -59q0 -37 29 -60q28 -22 72 -22q48 0 74 22q28 23 28 60q0 36 -29 59zM1218 290q-31 25 -83 25
q-50 0 -82 -25q-33 -26 -33 -65q0 -37 33 -62q34 -26 82 -26t82 26q32 25 32 62q0 40 -31 65z" />
    <glyph glyph-name="threeeighths" unicode="&#x215c;" horiz-adv-x="1740" 
d="M133 1381q79 67 215 67q132 0 209 -57q76 -57 76 -150q0 -61 -36 -102q-37 -42 -89 -58q67 -15 106 -58t39 -112q0 -108 -84 -171q-83 -62 -231 -62q-150 0 -228 68q-80 69 -81 198h196q6 -98 111 -98q47 0 77 21q29 20 29 59q0 38 -29 58q-31 22 -85 22h-41v129h45
q46 0 74 19t28 52q0 36 -24 55q-23 19 -66 19q-44 0 -72 -23q-27 -22 -28 -61h-193q5 119 82 185zM319 0l908 1434h231l-907 -1434h-232zM1131 322q38 47 110 69q-63 28 -92 67q-31 42 -31 101q0 87 78 143q79 56 211 56t212 -56q79 -55 79 -143q0 -62 -32 -102
q-32 -39 -91 -66q70 -22 108 -69q37 -46 37 -113q0 -99 -84 -160q-83 -61 -229 -61t-229 61q-84 62 -84 160q0 67 37 113zM1481 594q-28 22 -74 22q-44 0 -72 -22t-28 -59q0 -38 28 -60t72 -22q49 0 75 22q27 23 27 60t-28 59zM1490 290q-31 25 -83 25q-50 0 -82 -25
q-33 -26 -33 -65q0 -37 33 -62q34 -26 82 -26t82 26q33 26 33 62q0 39 -32 65z" />
    <glyph glyph-name="fiveeighths" unicode="&#x215d;" horiz-adv-x="1703" 
d="M575 1268h-348l-8 -129q58 53 146 53q112 0 181 -69q68 -68 68 -181q0 -119 -79 -192q-80 -74 -209 -74q-121 0 -196 65q-76 66 -87 174h190q6 -31 32 -49q25 -18 63 -18q39 0 64 25q26 26 26 69t-26 69q-25 25 -66 25q-31 2 -53 -12q-23 -14 -35 -39h-185l21 449h501
v-166zM283 0l907 1434h231l-907 -1434h-231zM1094 322q38 47 110 69q-63 28 -92 67q-31 42 -31 101q0 87 78 143q79 56 211 56t212 -56q79 -55 79 -143q0 -62 -32 -102q-32 -39 -91 -66q71 -22 109 -69q36 -45 36 -113q0 -99 -84 -160q-83 -61 -229 -61t-229 61
q-84 62 -84 160q0 67 37 113zM1444 594q-28 22 -74 22q-44 0 -72 -22t-28 -59q0 -38 28 -60t72 -22q49 0 75 22q28 23 28 60q0 36 -29 59zM1453 290q-31 25 -83 25q-50 0 -82 -25q-33 -26 -33 -65q0 -37 33 -62q34 -26 82 -26t82 26q33 26 33 62q0 39 -32 65z" />
    <glyph glyph-name="seveneighths" unicode="&#x215e;" horiz-adv-x="1667" 
d="M31 1434h559v-156l-285 -592h-213l285 580h-346v168zM248 0l907 1434h231l-907 -1434h-231zM1059 322q38 47 110 69q-63 28 -92 67q-30 40 -30 101q0 88 77 143q79 56 211 56t212 -56q79 -55 79 -143q0 -62 -32 -102q-32 -39 -91 -66q71 -22 109 -69q37 -46 37 -113
q0 -99 -84 -160q-83 -61 -230 -61q-146 0 -229 61q-84 62 -84 160q0 67 37 113zM1409 594q-28 22 -74 22q-43 0 -71 -22q-29 -23 -29 -59q0 -37 29 -60q28 -22 71 -22q49 0 75 22q28 23 28 60q0 36 -29 59zM1418 290q-31 25 -83 25q-50 0 -82 -25t-32 -65q0 -37 32 -62
q34 -26 82 -26t82 26q33 26 33 62q0 39 -32 65z" />
    <glyph glyph-name="arrowleft" unicode="&#x2190;" horiz-adv-x="1267" 
d="M18 549l584 586l176 -179l-289 -274h685v-264h-685l289 -275l-176 -178z" />
    <glyph glyph-name="arrowup" unicode="&#x2191;" horiz-adv-x="1347" 
d="M1257 483l-176 -176l-276 289v-598h-264v598l-275 -289l-178 176l586 584z" />
    <glyph glyph-name="arrowright" unicode="&#x2192;" horiz-adv-x="1267" 
d="M1249 549l-583 -584l-177 178l289 275h-684v264h684l-289 274l177 179z" />
    <glyph glyph-name="arrowdown" unicode="&#x2193;" horiz-adv-x="1347" 
d="M1257 565l-583 -583l-586 583l178 176l275 -288v598h264v-598l276 288z" />
    <glyph glyph-name="arrowboth" unicode="&#x2194;" horiz-adv-x="1763" 
d="M1153 1079l530 -530l-530 -531l-176 179l233 219h-659l235 -219l-176 -179l-530 531l530 530l176 -178l-235 -219h659l-233 219z" />
    <glyph glyph-name="arrowupdn" unicode="&#x2195;" horiz-adv-x="1220" 
d="M80 961l530 528l531 -528l-178 -177l-220 234v-619l220 234l178 -176l-533 -529l-528 529l178 176l219 -234v619l-219 -234z" />
    <glyph glyph-name="uni2196" unicode="&#x2196;" horiz-adv-x="1075" 
d="M90 1053h825l3 -230l-437 2l506 -483l-186 -188l-486 505l2 -434h-227v828z" />
    <glyph glyph-name="uni2197" unicode="&#x2197;" horiz-adv-x="1075" 
d="M985 1053v-828h-227l2 434l-486 -505l-186 188l506 483l-436 -2l2 230h825z" />
    <glyph glyph-name="uni2198" unicode="&#x2198;" horiz-adv-x="1075" 
d="M158 227l436 -2l-506 486l186 186l486 -504l-2 432h227v-825h-825z" />
    <glyph glyph-name="uni2199" unicode="&#x2199;" horiz-adv-x="1075" 
d="M317 827l-2 -436l484 506l188 -186l-506 -486l434 2v-227h-827v827h229z" />
    <glyph glyph-name="partialdiff" unicode="&#x2202;" horiz-adv-x="1243" 
d="M136 727q65 104 176 157q108 52 235 52q91 0 170 -24q82 -25 131 -72q-46 148 -191 239q-144 90 -428 117v250q317 -5 528 -126q210 -120 313 -321q101 -196 101 -440q0 -164 -62 -291q-63 -129 -188 -205q-124 -75 -309 -75q-160 0 -285 63t-191 174t-66 250
q0 147 66 252zM801 292q71 71 71 189q0 111 -72 178q-73 68 -188 68q-110 0 -179 -71q-68 -69 -68 -183t68 -183q69 -71 179 -71q116 0 189 73z" />
    <glyph glyph-name="emptyset" unicode="&#x2205;" horiz-adv-x="1277" 
d="M1212 731q0 -156 -73 -278q-73 -123 -204 -192q-129 -68 -296 -68q-191 0 -336 92l-88 -86l-135 133l84 82q-101 136 -101 317q0 156 74 278q73 121 205 191t297 70q181 0 322 -84l94 90l135 -133l-86 -84q108 -137 108 -328zM377 618l389 379q-58 29 -127 29
q-123 0 -202 -84q-79 -83 -79 -211q0 -58 19 -113zM839 519q79 85 79 212q0 67 -25 125l-395 -385q62 -37 141 -37q121 0 200 85z" />
    <glyph glyph-name="uni2206" unicode="&#x2206;" horiz-adv-x="1441" 
d="M53 0v244l482 1190h374l482 -1190v-244h-1338zM377 276h670l-336 848z" />
    <glyph glyph-name="product" unicode="&#x220f;" horiz-adv-x="1513" 
d="M1462 1434v-265h-155v-1386h-308v1386h-487v-1386h-307v1386h-156v265h1413z" />
    <glyph glyph-name="summation" unicode="&#x2211;" horiz-adv-x="1284" 
d="M68 27l553 610l-515 553v244h1080v-265h-684l405 -432v-194l-458 -500h753v-260h-1134v244z" />
    <glyph glyph-name="minus" unicode="&#x2212;" horiz-adv-x="1054" 
d="M86 461v244h883v-244h-883z" />
    <glyph glyph-name="radical" unicode="&#x221a;" horiz-adv-x="1280" 
d="M209 672l-90 -45l-96 213l333 159l281 -645l340 1080h280l-458 -1434h-287z" />
    <glyph glyph-name="infinity" unicode="&#x221e;" horiz-adv-x="1730" 
d="M1054 213q-90 52 -192 188q-107 -139 -192 -188q-88 -51 -201 -51q-132 0 -225 62q-95 63 -143 165t-48 219q0 119 48 221t143 165q94 63 225 63q113 0 202 -51q88 -51 191 -187q107 137 193 187q89 51 200 51q133 0 227 -63q95 -63 143 -165t48 -221q0 -117 -48 -219
t-143 -165q-93 -62 -227 -62q-113 0 -201 51zM592 461q52 41 125 147q-74 107 -125 149t-109 42q-82 0 -127 -53q-45 -52 -45 -138q0 -88 45 -138t127 -50q57 0 109 41zM1133 461q52 -41 108 -41q82 0 127 50t45 138q0 86 -45 138q-45 53 -127 53q-57 0 -108 -42t-125 -149
q73 -106 125 -147z" />
    <glyph glyph-name="integral" unicode="&#x222b;" horiz-adv-x="831" 
d="M166 27q54 0 79 27q25 26 25 89v959q0 157 80 245q80 87 238 87h194v-244h-118q-53 0 -79 -28t-26 -89v-958q0 -157 -80 -245q-79 -87 -237 -87h-193v244h117z" />
    <glyph glyph-name="approxequal" unicode="&#x2248;" horiz-adv-x="1054" 
d="M80 86q0 180 66 271q66 92 196 92q70 0 115 -18q51 -20 98 -50q25 -17 52 -31q20 -10 46 -10q92 0 92 109h230q0 -179 -67 -272q-66 -91 -195 -91q-73 0 -119 18t-94 52q-2 1 -5.5 3t-9.5 5.5t-12 6.5q-18 10 -38 17q-21 7 -34 7q-48 0 -70 -28t-22 -81h-229zM80 563
q0 181 66 272t196 91q70 0 115 -18q51 -20 98 -50q25 -18 52 -31q20 -10 46 -10q92 0 92 109h230q0 -179 -67 -272q-66 -91 -195 -91q-70 0 -119 19t-94 51q-2 1 -5.5 3t-9.5 5.5t-12 6.5q-22 13 -38 18q-18 6 -34 6q-48 0 -70 -28t-22 -81h-229z" />
    <glyph glyph-name="notequal" unicode="&#x2260;" horiz-adv-x="1054" 
d="M948 670h-252l-65 -199h317v-242h-397l-59 -178h-287l59 178h-158v242h238l66 199h-304v243h383l56 168h286l-55 -168h172v-243z" />
    <glyph glyph-name="lessequal" unicode="&#x2264;" horiz-adv-x="1054" 
d="M123 666v270l809 336v-279l-488 -192l488 -193v-278zM123 0v242h809v-242h-809z" />
    <glyph glyph-name="greaterequal" unicode="&#x2265;" horiz-adv-x="1054" 
d="M932 936v-270l-809 -336v278l487 193l-487 192v279zM123 0v242h809v-242h-809z" />
    <glyph glyph-name="dotmath" unicode="&#x22c5;" horiz-adv-x="507" 
d="M129 734q50 48 125 48t124 -49q50 -50 50 -123q0 -74 -50 -122t-124 -48q-76 0 -125 48t-49 122q0 76 49 124z" />
    <glyph glyph-name="filledbox" unicode="&#x25a0;" horiz-adv-x="1685" 
d="M123 1434h1442v-1434h-1442v1434z" />
    <glyph glyph-name="uni25A1" unicode="&#x25a1;" horiz-adv-x="1681" 
d="M123 1434h1438v-1434h-1438v1434zM414 1167v-899h854v899h-854z" />
    <glyph glyph-name="uni25AF" unicode="&#x25af;" horiz-adv-x="1271" 
d="M123 1434h1028v-1434h-1028v1434zM414 1167v-901h444v901h-444z" />
    <glyph glyph-name="triagup" unicode="&#x25b2;" horiz-adv-x="1738" 
d="M872 1458l838 -1458h-1679z" />
    <glyph glyph-name="uni25B3" unicode="&#x25b3;" horiz-adv-x="1738" 
d="M872 1458l838 -1458h-1679zM870 922l-381 -660h760z" />
    <glyph glyph-name="uni25B6" unicode="&#x25b6;" horiz-adv-x="1021" 
d="M100 1036l914 -524l-914 -524v1048z" />
    <glyph glyph-name="uni25B7" unicode="&#x25b7;" horiz-adv-x="1048" 
d="M100 1067l940 -539l-940 -540v1079zM322 350l315 178l-315 179v-357z" />
    <glyph glyph-name="uni25C0" unicode="&#x25c0;" horiz-adv-x="1021" 
d="M922 1036v-1048l-914 524z" />
    <glyph glyph-name="uni25C1" unicode="&#x25c1;" horiz-adv-x="1048" 
d="M948 1067v-1079l-940 540zM727 350v357l-315 -179z" />
    <glyph glyph-name="lozenge" unicode="&#x25ca;" horiz-adv-x="1329" 
d="M844 1434l405 -717l-405 -717h-359l-405 717l405 717h359zM666 233l249 484l-249 483l-252 -483z" />
    <glyph glyph-name="circle" unicode="&#x25cb;" horiz-adv-x="1617" 
d="M1192 1353q171 -94 266 -259q96 -166 96 -377t-96 -377q-95 -165 -266 -259q-169 -93 -383 -93q-213 0 -382 93t-265 259t-96 377t96 377t265 259q170 93 382 93q214 0 383 -93zM532 1197q-121 -69 -191 -197q-69 -126 -69 -283q0 -158 69 -284t191 -196q124 -71 277 -71
q152 0 276 71q123 71 192 196q69 126 69 284q0 157 -69 283q-69 127 -192 197q-124 71 -276 71q-153 0 -277 -71z" />
    <glyph glyph-name="uni25CF" unicode="&#x25cf;" horiz-adv-x="1613" 
d="M427 1353q-169 -93 -265 -259t-96 -377t96 -377t265 -259t380 -93q213 0 382 93t265 259t96 377t-96 377t-265 259t-382 93q-211 0 -380 -93z" />
    <glyph glyph-name="uni25FD" unicode="&#x25fd;" horiz-adv-x="1253" 
d="M100 1053h1053v-1057h-1053v1057zM328 836v-623h596v623h-596z" />
    <glyph glyph-name="uni25FE" unicode="&#x25fe;" horiz-adv-x="1236" 
d="M100 1036h1037v-1036h-1037v1036z" />
    <glyph glyph-name="uni262E" unicode="&#x262e;" horiz-adv-x="1597" 
d="M160 1094q94 166 261 259t378 93t379 -93t262 -259t94 -377t-94 -377t-262 -259t-379 -93t-378 93t-261 259t-94 377t94 377zM688 1188q-166 -30 -271 -160q-104 -130 -104 -311q0 -90 43 -166l332 334v303zM909 883l330 -334q47 79 47 168q0 183 -104 311
q-106 130 -273 160v-305zM909 246q141 24 236 119l-236 241v-360zM453 362q100 -92 235 -116v356z" />
    <glyph glyph-name="uni26AA" unicode="&#x26aa;" horiz-adv-x="1179" 
d="M860 976q123 -70 191 -190q69 -121 69 -268q0 -146 -69 -268q-68 -120 -191 -190q-120 -68 -270 -68q-151 0 -271 68q-121 69 -190 190q-70 123 -70 268t70 268q69 121 190 190q120 68 271 68q150 0 270 -68zM439 783q-68 -40 -108 -110t-40 -155q0 -84 40 -154
q41 -72 108 -111q68 -40 151 -40q82 0 150 40t109 111q40 70 40 154q0 85 -40 155q-40 69 -109 110q-68 40 -150 40q-83 0 -151 -40z" />
    <glyph glyph-name="uni26AB" unicode="&#x26ab;" horiz-adv-x="1179" 
d="M860 976q123 -70 191 -190q69 -121 69 -268q0 -146 -69 -268q-68 -120 -191 -190q-120 -68 -270 -68q-151 0 -271 68q-121 69 -190 190q-70 123 -70 268t70 268q69 121 190 190q120 68 271 68q150 0 270 -68z" />
    <glyph glyph-name="uni2713" unicode="&#x2713;" horiz-adv-x="2007" 
d="M31 715l202 203l515 -510l1024 1026l206 -203l-1230 -1231z" />
    <glyph glyph-name="uni2715" unicode="&#x2715;" horiz-adv-x="1570" 
d="M274 1434l512 -512l512 512l205 -203l-514 -514l514 -514l-205 -203l-512 514l-514 -514l-202 203l514 514l-514 514z" />
    <glyph glyph-name="uni2780" unicode="&#x2780;" horiz-adv-x="1617" 
d="M1192 1353q171 -94 266 -259q96 -166 96 -377t-96 -377q-95 -165 -266 -259q-169 -93 -383 -93q-213 0 -382 93t-265 259t-96 377t96 377t265 259q170 93 382 93q214 0 383 -93zM532 1197q-121 -69 -191 -197q-69 -126 -69 -283q0 -158 69 -284t191 -196q124 -71 277 -71
q152 0 276 71q123 71 192 196q69 126 69 284q0 157 -69 283q-69 127 -192 197q-124 71 -276 71q-153 0 -277 -71zM729 344v442q-15 -6 -39 -6h-127v174h117q23 0 39 22q14 20 14 52v62h189v-746h-193z" />
    <glyph glyph-name="uni2781" unicode="&#x2781;" horiz-adv-x="1617" 
d="M1192 1353q171 -94 266 -259q96 -166 96 -377t-96 -377q-95 -165 -266 -259q-169 -93 -383 -93q-213 0 -382 93t-265 259t-96 377t96 377t265 259q170 93 382 93q214 0 383 -93zM532 1197q-121 -69 -191 -197q-69 -126 -69 -283q0 -158 69 -284t191 -196q124 -71 277 -71
q152 0 276 71q123 71 192 196q69 126 69 284q0 157 -69 283q-69 127 -192 197q-124 71 -276 71q-153 0 -277 -71zM502 819q0 127 84 205t209 78q134 0 218 -70q83 -69 83 -182q0 -77 -37 -126q-38 -50 -101 -95l-151 -109h297v-176h-594v166l299 207q37 27 61 59
q23 31 23 70q0 36 -27 60t-69 24q-48 0 -75 -30q-28 -31 -28 -89v-6h-192v14z" />
    <glyph glyph-name="uni2782" unicode="&#x2782;" horiz-adv-x="1617" 
d="M1192 1353q171 -94 266 -259q96 -166 96 -377t-96 -377q-95 -165 -266 -259q-169 -93 -383 -93q-213 0 -382 93t-265 259t-96 377t96 377t265 259q170 93 382 93q214 0 383 -93zM532 1197q-121 -69 -191 -197q-69 -126 -69 -283q0 -158 69 -284t191 -196q124 -71 277 -71
q152 0 276 71q123 71 192 196q69 126 69 284q0 157 -69 283q-69 127 -192 197q-124 71 -276 71q-153 0 -277 -71zM594 1035q79 67 215 67q131 0 209 -58q76 -57 76 -149q0 -61 -36 -102q-37 -42 -89 -58q67 -15 106 -58t39 -112q0 -108 -84 -171q-83 -62 -231 -62
q-151 0 -229 68q-80 69 -81 198h197q6 -98 111 -98q46 0 76 21t30 59q0 37 -30 58t-85 21h-40v129h45q44 0 73 20t29 52q0 34 -25 54t-65 20q-44 0 -72 -23q-27 -22 -28 -61h-193q5 119 82 185z" />
    <glyph glyph-name="uni2783" unicode="&#x2783;" horiz-adv-x="1617" 
d="M1192 1353q171 -94 266 -259q96 -166 96 -377t-96 -377q-95 -165 -266 -259q-169 -93 -383 -93q-213 0 -382 93t-265 259t-96 377t96 377t265 259q170 93 382 93q214 0 383 -93zM532 1197q-121 -69 -191 -197q-69 -126 -69 -283q0 -158 69 -284t191 -196q124 -71 277 -71
q152 0 276 71q123 71 192 196q69 126 69 284q0 157 -69 283q-69 127 -192 197q-124 71 -276 71q-153 0 -277 -71zM754 1090h241v-412h111v-170h-111v-164h-190v164h-352v170zM805 903l-166 -225h166v225z" />
    <glyph glyph-name="uni2784" unicode="&#x2784;" horiz-adv-x="1617" 
d="M1192 1353q171 -94 266 -259q96 -166 96 -377t-96 -377q-95 -165 -266 -259q-169 -93 -383 -93q-213 0 -382 93t-265 259t-96 377t96 377t265 259q170 93 382 93q214 0 383 -93zM532 1197q-121 -69 -191 -197q-69 -126 -69 -283q0 -158 69 -284t191 -196q124 -71 277 -71
q152 0 276 71q123 71 192 196q69 126 69 284q0 157 -69 283q-69 127 -192 197q-124 71 -276 71q-153 0 -277 -71zM1055 924h-348l-9 -129q58 53 146 53q112 0 181 -69t69 -181q0 -118 -80 -192t-209 -74q-121 0 -196 65q-77 66 -87 174h191q6 -32 31 -49q26 -18 63 -18
q39 0 64 25q26 26 26 69t-26 69q-25 25 -66 25q-30 2 -52 -12q-24 -15 -36 -39h-185l21 449h502v-166z" />
    <glyph glyph-name="uni2785" unicode="&#x2785;" horiz-adv-x="1617" 
d="M1192 1353q171 -94 266 -259q96 -166 96 -377t-96 -377q-95 -165 -266 -259q-169 -93 -383 -93q-213 0 -382 93t-265 259t-96 377t96 377t265 259q170 93 382 93q214 0 383 -93zM532 1197q-121 -69 -191 -197q-69 -126 -69 -283q0 -158 69 -284t191 -196q124 -71 277 -71
q152 0 276 71q123 71 192 196q69 126 69 284q0 157 -69 283q-69 127 -192 197q-124 71 -276 71q-153 0 -277 -71zM578 993q91 109 237 109q105 0 184 -62t95 -168h-187q-7 36 -36 60q-26 22 -68 22q-63 0 -100 -55t-37 -133v-35q22 47 62 73q42 27 108 27q120 0 191 -67
q73 -68 73 -180q0 -114 -80 -183t-213 -69q-150 0 -235 101t-85 272q0 179 91 288zM881 656q-30 28 -74 28t-74 -28q-28 -27 -28 -72t27 -72t75 -27t75 27t27 72t-28 72z" />
    <glyph glyph-name="uni2786" unicode="&#x2786;" horiz-adv-x="1617" 
d="M1192 1353q171 -94 266 -259q96 -166 96 -377t-96 -377q-95 -165 -266 -259q-169 -93 -383 -93q-213 0 -382 93t-265 259t-96 377t96 377t265 259q170 93 382 93q214 0 383 -93zM532 1197q-121 -69 -191 -197q-69 -126 -69 -283q0 -158 69 -284t191 -196q124 -71 277 -71
q152 0 276 71q123 71 192 196q69 126 69 284q0 157 -69 283q-69 127 -192 197q-124 71 -276 71q-153 0 -277 -71zM537 1092h559v-156l-285 -592h-213l285 580h-346v168z" />
    <glyph glyph-name="uni2787" unicode="&#x2787;" horiz-adv-x="1617" 
d="M1192 1353q171 -94 266 -259q96 -166 96 -377t-96 -377q-95 -165 -266 -259q-169 -93 -383 -93q-213 0 -382 93t-265 259t-96 377t96 377t265 259q170 93 382 93q214 0 383 -93zM532 1197q-121 -69 -191 -197q-69 -126 -69 -283q0 -158 69 -284t191 -196q124 -71 277 -71
q152 0 276 71q123 71 192 196q69 126 69 284q0 157 -69 283q-69 127 -192 197q-124 71 -276 71q-153 0 -277 -71zM532 666q38 46 111 69q-63 28 -92 67q-31 42 -31 101q0 89 78 144q77 55 211 55q133 0 212 -55t79 -144q0 -62 -32 -102q-32 -39 -91 -66q70 -22 108 -69
q37 -46 37 -113q0 -98 -84 -160q-83 -61 -229 -61t-229 61q-84 62 -84 160q0 68 36 113zM883 938q-29 23 -74 23q-43 0 -72 -23q-28 -22 -28 -59q0 -38 28 -60t72 -22q49 0 75 22q27 23 27 60t-28 59zM892 634q-31 25 -83 25q-50 0 -82 -25q-33 -26 -33 -65q0 -37 33 -62
q34 -26 82 -26t82 26q33 25 33 62q0 39 -32 65z" />
    <glyph glyph-name="uni2788" unicode="&#x2788;" horiz-adv-x="1617" 
d="M1192 1353q171 -94 266 -259q96 -166 96 -377t-96 -377q-95 -165 -266 -259q-169 -93 -383 -93q-213 0 -382 93t-265 259t-96 377t96 377t265 259q170 93 382 93q214 0 383 -93zM532 1197q-121 -69 -191 -197q-69 -126 -69 -283q0 -158 69 -284t191 -196q124 -71 277 -71
q152 0 276 71q123 71 192 196q69 126 69 284q0 157 -69 283q-69 127 -192 197q-124 71 -276 71q-153 0 -277 -71zM1038 440q-90 -108 -237 -108q-108 0 -185 61t-94 168h187q7 -36 35 -59t69 -23q63 0 100 52t37 137v34q-46 -100 -172 -100q-117 0 -190 68q-72 68 -72 180
q0 113 80 182q81 70 213 70q149 0 234 -102q85 -101 85 -271q0 -181 -90 -289zM735 777q29 -27 74 -27t74 27q28 27 28 73q0 45 -27 72q-26 26 -75 26t-75 -26q-27 -27 -27 -72q0 -46 28 -73z" />
    <glyph glyph-name="uni278A" unicode="&#x278a;" horiz-adv-x="1613" 
d="M427 1353q-169 -93 -265 -259t-96 -377t96 -377t265 -259t380 -93q213 0 382 93t265 259t96 377t-96 377t-265 259t-382 93q-211 0 -380 -93zM727 344v442q-15 -6 -39 -6h-127v174h117q23 0 39 22q14 20 14 52v62h189v-746h-193z" />
    <glyph glyph-name="uni278B" unicode="&#x278b;" horiz-adv-x="1613" 
d="M427 1353q-169 -93 -265 -259t-96 -377t96 -377t265 -259t380 -93q213 0 382 93t265 259t96 377t-96 377t-265 259t-382 93q-211 0 -380 -93zM500 819q0 127 84 205t209 78q134 0 218 -70q83 -69 83 -182q0 -77 -37 -126q-38 -50 -101 -95l-151 -109h297v-176h-594v166
l299 207q37 27 61 59q23 31 23 70q0 36 -27 60t-69 24q-48 0 -75 -30q-28 -31 -28 -89v-6h-192v14z" />
    <glyph glyph-name="uni278C" unicode="&#x278c;" horiz-adv-x="1613" 
d="M427 1353q-169 -93 -265 -259t-96 -377t96 -377t265 -259t380 -93q213 0 382 93t265 259t96 377t-96 377t-265 259t-382 93q-211 0 -380 -93zM592 1035q79 67 215 67q131 0 209 -58q76 -57 76 -149q0 -61 -36 -102q-37 -42 -89 -58q67 -15 106 -58t39 -112
q0 -108 -84 -171q-83 -62 -231 -62q-151 0 -229 68q-80 69 -81 198h197q6 -98 111 -98q46 0 76 21t30 59q0 37 -30 58t-85 21h-41v129h46q44 0 73 20t29 52q0 34 -25 54t-65 20q-44 0 -72 -23t-29 -61h-192q5 119 82 185z" />
    <glyph glyph-name="uni278D" unicode="&#x278d;" horiz-adv-x="1613" 
d="M427 1353q-169 -93 -265 -259t-96 -377t96 -377t265 -259t380 -93q213 0 382 93t265 259t96 377t-96 377t-265 259t-382 93q-211 0 -380 -93zM752 1090h241v-412h111v-170h-111v-164h-190v164h-352v170zM803 903l-166 -225h166v225z" />
    <glyph glyph-name="uni278E" unicode="&#x278e;" horiz-adv-x="1613" 
d="M427 1353q-169 -93 -265 -259t-96 -377t96 -377t265 -259t380 -93q213 0 382 93t265 259t96 377t-96 377t-265 259t-382 93q-211 0 -380 -93zM1053 924h-348l-9 -129q58 53 146 53q112 0 181 -69t69 -181q0 -118 -80 -192t-209 -74q-121 0 -196 65q-77 66 -87 174h191
q6 -32 31 -49q26 -18 63 -18q39 0 64 25q26 26 26 69t-26 69q-25 25 -66 25q-30 2 -52 -12q-24 -15 -36 -39h-185l21 449h502v-166z" />
    <glyph glyph-name="uni278F" unicode="&#x278f;" horiz-adv-x="1613" 
d="M427 1353q-169 -93 -265 -259t-96 -377t96 -377t265 -259t380 -93q213 0 382 93t265 259t96 377t-96 377t-265 259t-382 93q-211 0 -380 -93zM575 993q91 109 238 109q105 0 184 -62t95 -168h-187q-7 36 -36 60q-26 22 -68 22q-63 0 -100 -55t-37 -133v-35q22 47 62 73
q42 27 108 27q120 0 191 -67q73 -68 73 -180q0 -114 -80 -183t-213 -69q-150 0 -235 101t-85 272q0 180 90 288zM879 656q-30 28 -74 28t-74 -28q-29 -27 -29 -72q0 -44 28 -72q27 -27 75 -27t75 27t27 72t-28 72z" />
    <glyph glyph-name="uni2790" unicode="&#x2790;" horiz-adv-x="1613" 
d="M427 1353q-169 -93 -265 -259t-96 -377t96 -377t265 -259t380 -93q213 0 382 93t265 259t96 377t-96 377t-265 259t-382 93q-211 0 -380 -93zM535 1092h559v-156l-285 -592h-213l285 580h-346v168z" />
    <glyph glyph-name="uni2791" unicode="&#x2791;" horiz-adv-x="1613" 
d="M427 1353q-169 -93 -265 -259t-96 -377t96 -377t265 -259t380 -93q213 0 382 93t265 259t96 377t-96 377t-265 259t-382 93q-211 0 -380 -93zM530 666q38 46 111 69q-63 28 -92 67q-31 42 -31 101q0 89 78 144q77 55 211 55q133 0 212 -55t79 -144q0 -62 -32 -102
q-32 -39 -91 -66q70 -22 108 -69q37 -46 37 -113q0 -98 -84 -160q-83 -61 -229 -61t-229 61q-84 62 -84 160q0 68 36 113zM881 938q-29 23 -74 23q-43 0 -72 -23q-28 -22 -28 -59q0 -38 28 -60t72 -22q49 0 75 22q27 23 27 60t-28 59zM890 634q-31 25 -83 25q-50 0 -82 -25
q-33 -26 -33 -65q0 -37 33 -62q34 -26 82 -26t82 26q33 25 33 62q0 39 -32 65z" />
    <glyph glyph-name="uni2792" unicode="&#x2792;" horiz-adv-x="1613" 
d="M427 1353q-169 -93 -265 -259t-96 -377t96 -377t265 -259t380 -93q213 0 382 93t265 259t96 377t-96 377t-265 259t-382 93q-211 0 -380 -93zM1036 440q-90 -108 -237 -108q-108 0 -185 61t-94 168h187q7 -36 35 -59t69 -23q63 0 100 52t37 137v34q-46 -100 -172 -100
q-117 0 -190 68q-72 68 -72 180q0 113 80 182q81 70 213 70q149 0 234 -102q85 -101 85 -271q0 -181 -90 -289zM733 777q29 -27 74 -27t74 27q28 27 28 73q0 45 -27 72q-26 26 -75 26t-75 -26q-27 -27 -27 -72q0 -46 28 -73z" />
    <glyph glyph-name="fl" unicode="&#xfb02;" horiz-adv-x="1216" 
d="M168 1053v92q0 139 80 214t237 75h236v-246h-178q-45 0 -66 -21q-20 -20 -20 -65v-49h264v-244h-264v-809h-289v809h-174v244h174zM827 1434h289v-1434h-289v1434z" />
    <glyph glyph-name="u1F10B" unicode="&#x1f10b;" horiz-adv-x="1617" 
d="M1192 1353q171 -94 266 -259q96 -166 96 -377t-96 -377q-95 -165 -266 -259q-169 -93 -383 -93q-213 0 -382 93t-265 259t-96 377t96 377t265 259q170 93 382 93q214 0 383 -93zM532 1197q-121 -69 -191 -197q-69 -126 -69 -283q0 -158 69 -284t191 -196q124 -71 277 -71
q152 0 276 71q123 71 192 196q69 126 69 284q0 157 -69 283q-69 127 -192 197q-124 71 -276 71q-153 0 -277 -71zM574 998q86 104 235 104t235 -104t86 -281q0 -178 -86 -282q-85 -103 -235 -103t-235 103t-85 282q0 178 85 281zM899 872q-34 58 -90 58t-90 -58
q-33 -57 -33 -155q0 -100 33 -157q32 -56 90 -56t90 56q33 57 33 157q0 98 -33 155z" />
    <glyph glyph-name="u1F10C" unicode="&#x1f10c;" horiz-adv-x="1613" 
d="M427 1353q-169 -93 -265 -259t-96 -377t96 -377t265 -259t380 -93q213 0 382 93t265 259t96 377t-96 377t-265 259t-382 93q-211 0 -380 -93zM572 998q86 104 235 104t235 -104t86 -281q0 -178 -86 -282q-85 -103 -235 -103t-235 103t-85 282q0 178 85 281zM897 872
q-34 58 -90 58t-90 -58q-33 -57 -33 -155q0 -100 33 -157q32 -56 90 -56t90 56q33 57 33 157q0 98 -33 155z" />
    <glyph glyph-name="J.ss06" horiz-adv-x="1267" 
d="M350 559q0 -146 62 -229q61 -82 186 -82q127 0 187 77q61 78 61 230v879h309v-871q0 -283 -143 -429t-414 -146q-272 0 -416 144q-143 143 -141 427h309z" />
    <glyph glyph-name="Jcircumflex.ss06" horiz-adv-x="1267" 
d="M350 559q0 -146 62 -229q61 -82 186 -82q127 0 187 77q61 78 61 230v879h309v-871q0 -283 -143 -429t-414 -146q-272 0 -416 144q-143 143 -141 427h309zM1004 1665l-127 -121h-265l262 291h259l262 -291h-267z" />
    <glyph glyph-name="Q.ss07" horiz-adv-x="1550" 
d="M1409 368q-78 -155 -215 -255l178 -273h-309l-109 168q-79 -20 -178 -20q-207 0 -368 94q-162 94 -252 261t-90 374q0 208 90 374q90 167 252 261q161 94 368 94q208 0 369 -94q162 -94 252 -261q90 -166 90 -374q0 -193 -78 -349zM797 248l-146 223h310l77 -119
q65 65 99 158t34 207q0 136 -49 241q-50 108 -139 167q-92 61 -207 61q-118 0 -209 -61q-89 -59 -139 -167q-49 -105 -49 -241q0 -137 49 -242q50 -108 139 -167q90 -60 209 -60h21z" />
    <glyph glyph-name="a.ss01" horiz-adv-x="1253" 
d="M1153 1053v-1053h-256l-25 147q-124 -157 -327 -157q-141 0 -250 65q-110 65 -173 189q-63 123 -63 284q0 160 63 283t174 189q113 67 251 67q104 0 188 -41q82 -40 135 -113l29 140h254zM799 306q69 82 69 218q0 137 -69 221t-187 84q-116 0 -187 -84q-71 -85 -71 -221
q0 -135 71 -218t187 -83q118 0 187 83z" />
    <glyph glyph-name="a.ss02" horiz-adv-x="1118" 
d="M914 968q122 -98 122 -284v-684h-254l-22 133q-58 -70 -136 -108q-75 -37 -184 -37q-174 0 -277 82q-104 83 -104 229q0 168 124 258q125 90 362 90h207v53q0 72 -53 113t-140 41q-81 0 -134 -35t-63 -94h-278q15 163 143 251q130 89 342 89q224 0 345 -97zM684 261
q66 65 68 173v21h-211q-91 0 -141 -36t-50 -102q0 -55 42 -88q41 -32 114 -32q113 0 178 64z" />
    <glyph glyph-name="aacute.ss01" horiz-adv-x="1253" 
d="M1153 1053v-1053h-256l-25 147q-124 -157 -327 -157q-141 0 -250 65q-110 65 -173 189q-63 123 -63 284q0 160 63 283t174 189q113 67 251 67q104 0 188 -41q82 -40 135 -113l29 140h254zM799 306q69 82 69 218q0 137 -69 221t-187 84q-116 0 -187 -84q-71 -85 -71 -221
q0 -135 71 -218t187 -83q118 0 187 83zM520 1165l150 289h329l-268 -289h-211z" />
    <glyph glyph-name="aacute.ss02" horiz-adv-x="1118" 
d="M914 968q122 -98 122 -284v-684h-254l-22 133q-58 -70 -136 -108q-75 -37 -184 -37q-174 0 -277 82q-104 83 -104 229q0 168 124 258q125 90 362 90h207v53q0 72 -53 113t-140 41q-81 0 -134 -35t-63 -94h-278q15 163 143 251q130 89 342 89q224 0 345 -97zM684 261
q66 65 68 173v21h-211q-91 0 -141 -36t-50 -102q0 -55 42 -88q41 -32 114 -32q113 0 178 64zM467 1165l149 289h330l-268 -289h-211z" />
    <glyph glyph-name="abreve.ss01" horiz-adv-x="1253" 
d="M1153 1053v-1053h-256l-25 147q-124 -157 -327 -157q-141 0 -250 65q-110 65 -173 189q-63 123 -63 284q0 160 63 283t174 189q113 67 251 67q104 0 188 -41q82 -40 135 -113l29 140h254zM799 306q69 82 69 218q0 137 -69 221t-187 84q-116 0 -187 -84q-71 -85 -71 -221
q0 -135 71 -218t187 -83q118 0 187 83zM508 1454q0 -53 31 -84t82 -31q48 0 80 32t32 83h207q-6 -135 -95 -218t-231 -83q-135 0 -221 83t-92 218h207z" />
    <glyph glyph-name="abreve.ss02" horiz-adv-x="1118" 
d="M914 968q122 -98 122 -284v-684h-254l-22 133q-58 -70 -136 -108q-75 -37 -184 -37q-174 0 -277 82q-104 83 -104 229q0 168 124 258q125 90 362 90h207v53q0 72 -53 113t-140 41q-81 0 -134 -35t-63 -94h-278q15 163 143 251q130 89 342 89q224 0 345 -97zM684 261
q66 65 68 173v21h-211q-91 0 -141 -36t-50 -102q0 -55 42 -88q41 -32 114 -32q113 0 178 64zM455 1454q0 -54 30 -84q31 -31 82 -31q49 0 81 32t32 83h207q-6 -135 -95 -218t-231 -83q-135 0 -221 83t-92 218h207z" />
    <glyph glyph-name="acircumflex.ss01" horiz-adv-x="1253" 
d="M1153 1053v-1053h-256l-25 147q-124 -157 -327 -157q-141 0 -250 65q-110 65 -173 189q-63 123 -63 284q0 160 63 283t174 189q113 67 251 67q104 0 188 -41q82 -40 135 -113l29 140h254zM799 306q69 82 69 218q0 137 -69 221t-187 84q-116 0 -187 -84q-71 -85 -71 -221
q0 -135 71 -218t187 -83q118 0 187 83zM621 1284l-127 -121h-265l263 291h258l262 -291h-267z" />
    <glyph glyph-name="acircumflex.ss02" horiz-adv-x="1118" 
d="M914 968q122 -98 122 -284v-684h-254l-22 133q-58 -70 -136 -108q-75 -37 -184 -37q-174 0 -277 82q-104 83 -104 229q0 168 124 258q125 90 362 90h207v53q0 72 -53 113t-140 41q-81 0 -134 -35t-63 -94h-278q15 163 143 251q130 89 342 89q224 0 345 -97zM684 261
q66 65 68 173v21h-211q-91 0 -141 -36t-50 -102q0 -55 42 -88q41 -32 114 -32q113 0 178 64zM567 1284l-127 -121h-264l262 291h258l262 -291h-266z" />
    <glyph glyph-name="adieresis.ss01" horiz-adv-x="1253" 
d="M1153 1053v-1053h-256l-25 147q-124 -157 -327 -157q-141 0 -250 65q-110 65 -173 189q-63 123 -63 284q0 160 63 283t174 189q113 67 251 67q104 0 188 -41q82 -40 135 -113l29 140h254zM799 306q69 82 69 218q0 137 -69 221t-187 84q-116 0 -187 -84q-71 -85 -71 -221
q0 -135 71 -218t187 -83q118 0 187 83zM295 1436q44 43 111 43q66 0 109 -43q44 -44 44 -107q0 -62 -44 -106q-43 -43 -109 -43q-67 0 -111 43q-45 43 -45 106t45 107zM726 1436q43 43 110 43q66 0 110 -43q45 -43 45 -107q0 -63 -45 -106q-44 -43 -110 -43q-67 0 -110 43
q-44 44 -44 106q0 63 44 107z" />
    <glyph glyph-name="adieresis.ss02" horiz-adv-x="1118" 
d="M914 968q122 -98 122 -284v-684h-254l-22 133q-58 -70 -136 -108q-75 -37 -184 -37q-174 0 -277 82q-104 83 -104 229q0 168 124 258q125 90 362 90h207v53q0 72 -53 113t-140 41q-81 0 -134 -35t-63 -94h-278q15 163 143 251q130 89 342 89q224 0 345 -97zM684 261
q66 65 68 173v21h-211q-91 0 -141 -36t-50 -102q0 -55 42 -88q41 -32 114 -32q113 0 178 64zM242 1436q44 43 110 43q67 0 110 -43q44 -44 44 -107q0 -62 -44 -106q-43 -43 -110 -43q-66 0 -110 43q-45 43 -45 106t45 107zM673 1436q43 43 109 43q67 0 111 -43
q45 -43 45 -107q0 -63 -45 -106q-44 -43 -111 -43q-66 0 -109 43q-44 44 -44 106q0 63 44 107z" />
    <glyph glyph-name="agrave.ss01" horiz-adv-x="1253" 
d="M1153 1053v-1053h-256l-25 147q-124 -157 -327 -157q-141 0 -250 65q-110 65 -173 189q-63 123 -63 284q0 160 63 283t174 189q113 67 251 67q104 0 188 -41q82 -40 135 -113l29 140h254zM799 306q69 82 69 218q0 137 -69 221t-187 84q-116 0 -187 -84q-71 -85 -71 -221
q0 -135 71 -218t187 -83q118 0 187 83zM250 1454h330l143 -295h-217z" />
    <glyph glyph-name="agrave.ss02" horiz-adv-x="1118" 
d="M914 968q122 -98 122 -284v-684h-254l-22 133q-58 -70 -136 -108q-75 -37 -184 -37q-174 0 -277 82q-104 83 -104 229q0 168 124 258q125 90 362 90h207v53q0 72 -53 113t-140 41q-81 0 -134 -35t-63 -94h-278q15 163 143 251q130 89 342 89q224 0 345 -97zM684 261
q66 65 68 173v21h-211q-91 0 -141 -36t-50 -102q0 -55 42 -88q41 -32 114 -32q113 0 178 64zM197 1454h329l144 -295h-217z" />
    <glyph glyph-name="amacron.ss01" horiz-adv-x="1253" 
d="M1153 1053v-1053h-256l-25 147q-124 -157 -327 -157q-141 0 -250 65q-110 65 -173 189q-63 123 -63 284q0 160 63 283t174 189q113 67 251 67q104 0 188 -41q82 -40 135 -113l29 140h254zM799 306q69 82 69 218q0 137 -69 221t-187 84q-116 0 -187 -84q-71 -85 -71 -221
q0 -135 71 -218t187 -83q118 0 187 83zM303 1227v205h637v-205h-637z" />
    <glyph glyph-name="amacron.ss02" horiz-adv-x="1118" 
d="M914 968q122 -98 122 -284v-684h-254l-22 133q-58 -70 -136 -108q-75 -37 -184 -37q-174 0 -277 82q-104 83 -104 229q0 168 124 258q125 90 362 90h207v53q0 72 -53 113t-140 41q-81 0 -134 -35t-63 -94h-278q15 163 143 251q130 89 342 89q224 0 345 -97zM684 261
q66 65 68 173v21h-211q-91 0 -141 -36t-50 -102q0 -55 42 -88q41 -32 114 -32q113 0 178 64zM250 1227v205h637v-205h-637z" />
    <glyph glyph-name="aogonek.ss01" horiz-adv-x="1253" 
d="M1159 -217v-193h-184q-104 0 -174 55t-70 144q0 73 42 133q43 62 118 113l-19 112q-124 -157 -327 -157q-141 0 -250 65q-110 65 -173 189q-63 123 -63 284q0 160 63 283t174 189q113 67 251 67q104 0 188 -41q82 -40 135 -113l29 140h254v-1053h2q-98 -44 -145 -83
q-49 -40 -49 -81q0 -53 67 -53h131zM799 306q69 82 69 218q0 137 -69 221t-187 84q-116 0 -187 -84q-71 -85 -71 -221q0 -135 71 -218t187 -83q118 0 187 83z" />
    <glyph glyph-name="aogonek.ss02" horiz-adv-x="1118" 
d="M1040 -217v-193h-184q-104 0 -174 55t-70 144q0 76 43 135q45 62 121 113l-16 96q-58 -70 -136 -108q-75 -37 -184 -37q-174 0 -277 82q-104 83 -104 229q0 168 124 258q125 90 362 90h207v53q0 72 -53 113t-140 41q-81 0 -134 -35t-63 -94h-278q15 163 143 251
q130 89 342 89q224 0 345 -97q122 -98 122 -284v-684q-98 -44 -145 -83q-49 -40 -49 -81q0 -53 67 -53h131zM684 261q66 65 68 173v21h-211q-91 0 -141 -36t-50 -102q0 -55 42 -88q41 -32 114 -32q113 0 178 64z" />
    <glyph glyph-name="aring.ss01" horiz-adv-x="1253" 
d="M1153 1053v-1053h-256l-25 147q-124 -157 -327 -157q-141 0 -250 65q-110 65 -173 189q-63 123 -63 284q0 160 63 283t174 189q113 67 251 67q104 0 188 -41q82 -40 135 -113l29 140h254zM799 306q69 82 69 218q0 137 -69 221t-187 84q-116 0 -187 -84q-71 -85 -71 -221
q0 -135 71 -218t187 -83q118 0 187 83zM431 1555q78 73 190 73q111 0 189 -73q77 -72 77 -175q0 -104 -77 -176q-75 -71 -189 -71q-115 0 -190 71q-77 72 -77 176q0 103 77 175zM706 1465q-34 34 -85 34t-85 -34t-34 -85q0 -52 34 -86t85 -34t85 34q33 33 33 86q0 52 -33 85
z" />
    <glyph glyph-name="aring.ss02" horiz-adv-x="1118" 
d="M914 968q122 -98 122 -284v-684h-254l-22 133q-58 -70 -136 -108q-75 -37 -184 -37q-174 0 -277 82q-104 83 -104 229q0 168 124 258q125 90 362 90h207v53q0 72 -53 113t-140 41q-81 0 -134 -35t-63 -94h-278q15 163 143 251q130 89 342 89q224 0 345 -97zM684 261
q66 65 68 173v21h-211q-91 0 -141 -36t-50 -102q0 -55 42 -88q41 -32 114 -32q113 0 178 64zM378 1555q78 73 189 73q112 0 190 -73q77 -72 77 -175q0 -104 -77 -176q-75 -71 -190 -71q-114 0 -189 71q-77 72 -77 176q0 103 77 175zM652 1465q-34 34 -85 34t-85 -34
q-33 -33 -33 -85q0 -53 33 -86q34 -34 85 -34t85 34t34 86q0 51 -34 85z" />
    <glyph glyph-name="atilde.ss01" horiz-adv-x="1253" 
d="M1153 1053v-1053h-256l-25 147q-124 -157 -327 -157q-141 0 -250 65q-110 65 -173 189q-63 123 -63 284q0 160 63 283t174 189q113 67 251 67q104 0 188 -41q82 -40 135 -113l29 140h254zM799 306q69 82 69 218q0 137 -69 221t-187 84q-116 0 -187 -84q-71 -85 -71 -221
q0 -135 71 -218t187 -83q118 0 187 83zM486 1252q-19 -23 -19 -56h-168v41q0 94 54 157q53 62 141 62q44 0 71 -13q28 -13 62 -38q27 -21 40 -28q18 -9 40 -9q31 0 49 23t18 57h168v-43q0 -95 -55 -157t-139 -62q-47 0 -75 14q-33 17 -63 41q-28 21 -40 27q-16 8 -33 8
q-31 0 -51 -24z" />
    <glyph glyph-name="atilde.ss02" horiz-adv-x="1118" 
d="M914 968q122 -98 122 -284v-684h-254l-22 133q-58 -70 -136 -108q-75 -37 -184 -37q-174 0 -277 82q-104 83 -104 229q0 168 124 258q125 90 362 90h207v53q0 72 -53 113t-140 41q-81 0 -134 -35t-63 -94h-278q15 163 143 251q130 89 342 89q224 0 345 -97zM684 261
q66 65 68 173v21h-211q-91 0 -141 -36t-50 -102q0 -55 42 -88q41 -32 114 -32q113 0 178 64zM433 1252q-19 -23 -19 -56h-168v41q0 94 54 157q53 62 140 62q45 0 72 -13q25 -12 61 -38q27 -21 40 -28q18 -9 40 -9q31 0 49 23q19 24 19 57h168v-43q0 -95 -55 -157t-140 -62
q-46 0 -74 14q-33 17 -63 41q-28 21 -40 27q-16 8 -34 8q-31 0 -50 -24z" />
    <glyph glyph-name="f.calt" horiz-adv-x="659" 
d="M180 1359q79 75 238 75h235v-246h-178q-86 0 -86 -86v-49h264v-244h-264v-809h-289v1145q0 139 80 214z" />
    <glyph glyph-name="i.ss03" horiz-adv-x="567" 
d="M443 1445q49 -47 49 -116q0 -70 -49 -117t-119 -47q-72 0 -119 47t-47 117q0 69 47 116q46 46 119 46q72 0 119 -46zM178 809h-170v244h461v-1053h-291v809z" />
    <glyph glyph-name="dotlessi.ss03" horiz-adv-x="569" 
d="M8 1053h461v-1053h-291v809h-170v244z" />
    <glyph glyph-name="iacute.ss03" horiz-adv-x="569" 
d="M8 1053h461v-1053h-291v809h-170v244zM211 1163l149 289h330l-268 -289h-211z" />
    <glyph glyph-name="ibreve.ss03" horiz-adv-x="569" 
d="M8 1053h461v-1053h-291v809h-170v244zM199 1452q0 -54 30 -84q31 -31 82 -31q49 0 81 32t32 83h207q-6 -135 -95 -218t-231 -83q-135 0 -221 83t-92 218h207z" />
    <glyph glyph-name="icircumflex.ss03" horiz-adv-x="569" 
d="M8 1053h461v-1053h-291v809h-170v244zM311 1282l-127 -121h-264l262 291h258l262 -291h-266z" />
    <glyph glyph-name="idieresis.ss03" horiz-adv-x="569" 
d="M8 1053h461v-1053h-291v809h-170v244zM-14 1434q44 43 110 43q67 0 110 -43q44 -44 44 -107q0 -62 -44 -106q-43 -43 -110 -43q-66 0 -110 43q-45 43 -45 106t45 107zM417 1434q43 43 109 43q67 0 111 -43q45 -44 45 -107t-45 -106q-44 -43 -111 -43q-66 0 -109 43
q-44 44 -44 106q0 63 44 107z" />
    <glyph glyph-name="i.loclTRK" horiz-adv-x="489" 
d="M100 1053h291v-1053h-291v1053zM127 1465q46 46 119 46t119 -46q47 -47 47 -115q0 -69 -47 -116q-46 -46 -119 -46t-119 46q-47 47 -47 116q0 68 47 115z" />
    <glyph glyph-name="i.loclTRK.ss03" horiz-adv-x="569" 
d="M8 1053h461v-1053h-291v809h-170v244zM193 1463q46 46 118 46q73 0 119 -46q47 -47 47 -115q0 -69 -47 -116q-46 -46 -119 -46q-72 0 -118 46q-48 48 -48 116q0 67 48 115z" />
    <glyph glyph-name="igrave.ss03" horiz-adv-x="569" 
d="M8 1053h461v-1053h-291v809h-170v244zM-59 1452h329l144 -295h-217z" />
    <glyph glyph-name="ij.ss03" horiz-adv-x="1069" 
d="M365 1445q47 -47 47 -116q0 -70 -47 -117t-119 -47q-71 0 -120 47q-48 46 -48 117q0 69 48 116q47 46 120 46t119 -46zM100 1053h289v-1053h-289v1053zM706 1444q49 47 119 47q72 0 119 -47t47 -117q0 -69 -47 -116q-46 -46 -119 -46q-72 0 -119 46q-49 47 -49 116
q0 70 49 117zM563 -166q115 0 115 115v860h-170v244h461v-1143q0 -150 -82 -235t-238 -85h-200v244h114z" />
    <glyph glyph-name="ij.ss04" horiz-adv-x="978" 
d="M365 1445q47 -47 47 -116q0 -70 -47 -117t-119 -47q-71 0 -120 47q-48 46 -48 117q0 69 48 116q47 46 120 46t119 -46zM100 1053h289v-1053h-289v1053zM615 1445q47 46 120 46t119 -46q47 -47 47 -116q0 -70 -47 -117t-119 -47q-71 0 -120 47q-48 46 -48 117q0 69 48 116
zM590 1053h291v-1463h-291v1463z" />
    <glyph glyph-name="imacron.ss01" horiz-adv-x="569" 
d="M8 1053h461v-1053h-291v809h-170v244zM-6 1225v205h637v-205h-637z" />
    <glyph glyph-name="iogonek.ss03" horiz-adv-x="567" 
d="M205 1212q-47 47 -47 117q0 69 47 116q46 46 119 46q72 0 119 -46q49 -47 49 -116q0 -70 -49 -117t-119 -47q-72 0 -119 47zM342 -217h131v-193h-184q-104 0 -174 55t-70 144q0 67 35 122q33 52 98 103v795h-170v244h461v-1053q-98 -44 -145 -83q-50 -41 -50 -81
q0 -53 68 -53z" />
    <glyph glyph-name="itilde.ss03" horiz-adv-x="569" 
d="M8 1053h461v-1053h-291v809h-170v244zM177 1250q-19 -23 -19 -56h-168v41q0 94 54 157q53 62 140 62q45 0 72 -13q25 -12 61 -38q27 -21 40 -28q18 -9 40 -9q31 0 49 23q19 24 19 57h168v-43q0 -95 -55 -157t-140 -62q-46 0 -74 14q-33 17 -63 41q-28 21 -40 27
q-16 8 -34 8q-31 0 -50 -24z" />
    <glyph glyph-name="j.short" horiz-adv-x="499" 
d="M135 1445q46 46 119 46t120 -46q48 -47 48 -116q0 -71 -48 -117q-49 -47 -120 -47q-72 0 -119 47t-47 117q0 69 47 116zM6 -166q53 0 79 28t26 89v1102h288v-1143q0 -151 -77 -235q-78 -85 -226 -85h-131v244h41z" />
    <glyph glyph-name="j.ss03" horiz-adv-x="579" 
d="M216 1444q49 47 120 47q72 0 119 -47t47 -117q0 -69 -47 -116q-46 -46 -119 -46t-120 46q-48 47 -48 116q0 71 48 117zM74 -166q114 0 114 115v860h-170v244h461v-1143q0 -150 -82 -235t-237 -85h-201v244h115z" />
    <glyph glyph-name="j.ss04" horiz-adv-x="489" 
d="M126 1445q47 46 120 46t119 -46q47 -47 47 -116q0 -70 -47 -117t-119 -47q-71 0 -120 47q-48 46 -48 117q0 69 48 116zM100 1053h291v-1463h-291v1463z" />
    <glyph glyph-name="uni0237.short" horiz-adv-x="499" 
d="M6 -166q53 0 79 28t26 89v1102h288v-1143q0 -151 -77 -235q-78 -85 -226 -85h-131v244h41z" />
    <glyph glyph-name="uni0237.ss03" horiz-adv-x="579" 
d="M74 -166q114 0 114 115v860h-170v244h461v-1143q0 -150 -82 -235t-237 -85h-201v244h115z" />
    <glyph glyph-name="uni0237.ss04" horiz-adv-x="489" 
d="M100 1053h291v-1463h-291v1463z" />
    <glyph glyph-name="jcircumflex.short" horiz-adv-x="499" 
d="M6 -166q53 0 79 28t26 89v1102h288v-1143q0 -151 -77 -235q-78 -85 -226 -85h-131v244h41zM252 1284l-127 -121h-264l262 291h258l262 -291h-266z" />
    <glyph glyph-name="jcircumflex.ss03" horiz-adv-x="579" 
d="M74 -166q114 0 114 115v860h-170v244h461v-1143q0 -150 -82 -235t-237 -85h-201v244h115zM336 1284l-127 -121h-264l262 291h258l262 -291h-266z" />
    <glyph glyph-name="jcircumflex.ss04" horiz-adv-x="489" 
d="M100 1053h291v-1463h-291v1463zM248 1284l-127 -121h-264l262 291h258l262 -291h-266z" />
    <glyph glyph-name="t.calt" horiz-adv-x="661" 
d="M100 1348h289v-295h240v-244h-240v-461q0 -56 24 -80t79 -24h149v-244h-240q-301 0 -301 301v1047z" />
    <glyph glyph-name="t.ss05" horiz-adv-x="704" 
d="M-6 1053h174v295h289v-295h227v-244h-227v-809h-289v809h-174v244z" />
    <glyph glyph-name="tbar.calt" horiz-adv-x="661" 
d="M389 809v-147h240v-211h-240v-103q0 -56 24 -80t79 -24h149v-244h-240q-301 0 -301 301v1047h289v-295h240v-244h-240z" />
    <glyph glyph-name="tbar.ss05" horiz-adv-x="751" 
d="M709 809h-232v-170h232v-209h-232v-430h-291v430h-178v209h178v170h-178v244h178v295h291v-295h232v-244z" />
    <glyph glyph-name="tcaron.calt" horiz-adv-x="688" 
d="M100 1348h289v-295h240v-244h-240v-461q0 -56 24 -80t79 -24h149v-244h-240q-301 0 -301 301v1047zM535 1444h270l-139 -303h-203z" />
    <glyph glyph-name="tcaron.ss05" horiz-adv-x="763" 
d="M-6 1053h174v295h289v-295h227v-244h-227v-809h-289v809h-174v244zM608 1440h271l-140 -303h-202z" />
    <glyph glyph-name="uni0163.calt" horiz-adv-x="661" 
d="M100 1348h289v-295h240v-244h-240v-461q0 -56 24 -80t79 -24h149v-244h-240q-301 0 -301 301v1047zM229 -98h281l-174 -301h-215z" />
    <glyph glyph-name="uni0163.ss05" horiz-adv-x="704" 
d="M-6 1053h174v295h289v-295h227v-244h-227v-809h-289v809h-174v244zM170 -98h281l-175 -301h-215z" />
    <glyph glyph-name="uni021B.calt" horiz-adv-x="661" 
d="M100 1348h289v-295h240v-244h-240v-461q0 -56 24 -80t79 -24h149v-244h-240q-301 0 -301 301v1047zM229 -98h281l-174 -301h-215z" />
    <glyph glyph-name="uni021B.ss05" horiz-adv-x="704" 
d="M-6 1053h174v295h289v-295h227v-244h-227v-809h-289v809h-174v244zM170 -98h281l-175 -301h-215z" />
    <glyph glyph-name="y.ss01" horiz-adv-x="1191" 
d="M1092 1053v-1033q0 -198 -129 -320q-130 -122 -400 -122q-213 0 -343 94t-138 273h291q38 -148 215 -148q103 0 163 58q58 57 58 165v132q-58 -74 -129 -113q-72 -39 -178 -39q-186 0 -302 110t-116 373v570h289v-535q0 -138 50 -208q49 -68 155 -68q105 0 165 76t60 221
v514h289z" />
    <glyph glyph-name="yacute.ss01" horiz-adv-x="1191" 
d="M1092 1053v-1033q0 -198 -129 -320q-130 -122 -400 -122q-213 0 -343 94t-138 273h291q38 -148 215 -148q103 0 163 58q58 57 58 165v132q-58 -74 -129 -113q-72 -39 -178 -39q-186 0 -302 110t-116 373v570h289v-535q0 -138 50 -208q49 -68 155 -68q105 0 165 76t60 221
v514h289zM487 1165l150 289h330l-269 -289h-211z" />
    <glyph glyph-name="ycircumflex.ss01" horiz-adv-x="1191" 
d="M1092 1053v-1033q0 -198 -129 -320q-130 -122 -400 -122q-213 0 -343 94t-138 273h291q38 -148 215 -148q103 0 163 58q58 57 58 165v132q-58 -74 -129 -113q-72 -39 -178 -39q-186 0 -302 110t-116 373v570h289v-535q0 -138 50 -208q49 -68 155 -68q105 0 165 76t60 221
v514h289zM588 1284l-127 -121h-264l262 291h258l262 -291h-266z" />
    <glyph glyph-name="ydieresis.ss01" horiz-adv-x="1191" 
d="M1092 1053v-1033q0 -198 -129 -320q-130 -122 -400 -122q-213 0 -343 94t-138 273h291q38 -148 215 -148q103 0 163 58q58 57 58 165v132q-58 -74 -129 -113q-72 -39 -178 -39q-186 0 -302 110t-116 373v570h289v-535q0 -138 50 -208q49 -68 155 -68q105 0 165 76t60 221
v514h289zM262 1436q44 43 111 43q66 0 109 -43q44 -44 44 -107q0 -62 -44 -106q-43 -43 -109 -43q-67 0 -111 43q-45 43 -45 106t45 107zM693 1436q43 43 110 43q66 0 110 -43q45 -43 45 -107q0 -63 -45 -106q-44 -43 -110 -43q-67 0 -110 43q-44 44 -44 106q0 63 44 107z
" />
    <glyph glyph-name="ygrave.ss01" horiz-adv-x="1191" 
d="M1092 1053v-1033q0 -198 -129 -320q-130 -122 -400 -122q-213 0 -343 94t-138 273h291q38 -148 215 -148q103 0 163 58q58 57 58 165v132q-58 -74 -129 -113q-72 -39 -178 -39q-186 0 -302 110t-116 373v570h289v-535q0 -138 50 -208q49 -68 155 -68q105 0 165 76t60 221
v514h289zM217 1454h330l143 -295h-217z" />
    <glyph glyph-name="w_w_w" horiz-adv-x="4448" 
d="M4153 1053h295l-346 -1053h-307l-184 635l-189 -635h-307l-199 606l-198 -606h-308l-184 635l-188 -635h-307l-199 608l-201 -608h-307l-184 635l-189 -635h-307l-344 1053h305l211 -742l199 742h260l192 -744l215 744h310l211 -742l198 742h260l193 -744l215 744h307
l211 -742l199 742h260l192 -744z" />
    <glyph glyph-name="zero.osf" horiz-adv-x="1271" 
d="M135 804q73 121 205 191t297 70q163 0 295 -70t205 -191t73 -278q0 -156 -73 -278q-73 -123 -204 -192q-129 -68 -296 -68q-168 0 -297 68q-132 70 -205 192q-74 124 -74 278q0 156 74 278zM837 737q-79 84 -200 84q-123 0 -202 -84q-79 -83 -79 -211q0 -130 79 -213
q79 -84 202 -84q121 0 200 85q78 84 78 212q0 129 -78 211z" />
    <glyph glyph-name="one.osf" horiz-adv-x="694" 
d="M197 836q54 0 82 40t28 101v76h283v-1053h-291v604q-46 -8 -104 -8h-179v240h181z" />
    <glyph glyph-name="two.osf" horiz-adv-x="1073" 
d="M1014 231v-231h-953v217l451 242q103 53 152 102t49 115q0 69 -50 111t-135 42t-138 -52q-54 -53 -54 -136v-25h-287v25q0 118 59 215t168 153t261 56q138 0 246 -48q107 -47 166 -134q59 -86 59 -199q0 -97 -65 -180q-63 -81 -177 -137l-272 -136h520z" />
    <glyph glyph-name="three.osf" horiz-adv-x="1183" 
d="M1122 31q0 -124 -65 -216q-67 -94 -188 -145q-122 -51 -283 -51q-253 0 -398 130t-147 362h293q2 -127 70 -195q70 -70 182 -70q102 0 171 57q68 56 68 144q0 85 -63 135q-62 49 -180 49h-125v232h110q107 0 168 51q62 51 62 133q0 89 -60 139q-61 50 -155 50
q-95 0 -159 -61q-63 -60 -65 -163h-286q2 210 141 331q140 122 373 122q236 0 371 -106t135 -279q0 -125 -76 -204q-75 -78 -207 -116q313 -69 313 -329z" />
    <glyph glyph-name="four.osf" horiz-adv-x="1214" 
d="M647 1053h361v-809h180v-244h-180v-369h-279v369h-692v244zM729 780l-399 -536h399v536z" />
    <glyph glyph-name="five.osf" horiz-adv-x="1204" 
d="M916 523q107 -64 166 -173q61 -113 61 -250q0 -153 -71 -262t-190 -164t-268 -55q-156 0 -273 59q-116 59 -183 162q-66 102 -72 230h291q11 -93 75 -154t162 -61q103 0 168 68q66 69 66 179q0 109 -65 179q-64 69 -169 69q-156 0 -223 -149l-287 2l41 850h912v-248h-660
l-16 -336q61 63 131 89q75 28 166 28q133 0 238 -63z" />
    <glyph glyph-name="six.osf" horiz-adv-x="1224" 
d="M996 1314q133 -109 157 -304h-289q-27 83 -84 130q-56 46 -147 46q-140 0 -216 -103q-75 -102 -75 -288v-39l20 32q108 144 328 144q142 0 248 -60q108 -61 165 -165q58 -106 58 -246q0 -139 -69 -247q-68 -106 -191 -167q-119 -59 -272 -59q-272 0 -428 207
q-66 85 -102 218q-36 132 -36 283q0 344 153 535q153 190 429 190q220 0 351 -107zM468 638q-67 -67 -67 -169q0 -110 65 -181t169 -71q102 0 167 68q64 67 64 174t-63 176q-64 70 -166 70t-169 -67z" />
    <glyph glyph-name="seven.osf" horiz-adv-x="1097" 
d="M31 1053h1022v-234l-604 -1188h-320l602 1176h-700v246z" />
    <glyph glyph-name="eight.osf" horiz-adv-x="1216" 
d="M1073 620q82 -86 82 -237q0 -117 -63 -206q-64 -90 -188 -139q-126 -50 -296 -50q-173 0 -297 50q-122 49 -186 139t-64 206q0 147 81 232q80 85 210 118q-109 33 -179 112q-71 80 -71 204q0 109 61 194q60 84 175 131t270 47q156 0 271 -47t175 -131t60 -194
q0 -115 -73 -199q-73 -83 -177 -113q126 -30 209 -117zM454 1171q-61 -52 -61 -133q0 -83 61 -136q59 -52 154 -52q96 0 155 52q60 53 60 136q0 82 -60 133q-61 52 -155 52q-93 0 -154 -52zM788 253q72 60 72 155q0 94 -72 155q-73 62 -180 62t-180 -62q-72 -61 -72 -155
q0 -95 72 -155t180 -60t180 60z" />
    <glyph glyph-name="nine.osf" horiz-adv-x="1224" 
d="M1126 637q35 -132 35 -285q0 -349 -152 -540q-154 -193 -429 -193q-220 0 -352 108t-156 304h288q27 -83 84 -130q56 -46 148 -46q144 0 217 106q74 107 74 297v37l-27 -41q-52 -68 -136 -102q-82 -33 -185 -33q-143 0 -248 59q-107 60 -165 166q-59 107 -59 244
q0 138 70 248q69 108 191 168q119 59 272 59q270 0 428 -209q67 -85 102 -217zM420 415q63 -69 166 -69q105 0 171 69t66 173q0 107 -64 175t-169 68t-169 -68q-65 -70 -65 -173q0 -105 64 -175z" />
    <glyph glyph-name="one.osf.ss08" 
d="M1155 240v-240h-979v240h348v368q-53 -10 -104 -10h-227v236h229q55 0 81 38q27 39 27 101v80h283v-813h342z" />
    <glyph glyph-name="seven.osf.ss08" horiz-adv-x="1138" 
d="M59 1053h1035v-234l-602 -1188h-320l600 1176h-461v-217h-252v463z" />
    <glyph glyph-name="four.osf.ss09" horiz-adv-x="1128" 
d="M662 1053h360v-1422h-279v369h-706v244zM743 782l-407 -538h407v538z" />
    <glyph glyph-name="zero.osf.zero" horiz-adv-x="1271" 
d="M932 995q132 -70 205 -191t73 -278q0 -156 -73 -278q-73 -123 -204 -192q-129 -68 -296 -68q-168 0 -297 68q-132 70 -205 192q-74 124 -74 278q0 156 74 278q73 121 205 191t297 70q163 0 295 -70zM431 743q-81 -85 -81 -217q0 -77 33 -149l401 414q-66 38 -147 38
q-125 0 -206 -86zM842 309q80 86 80 217q0 83 -35 150l-398 -414q66 -39 148 -39q125 0 205 86z" />
    <glyph glyph-name="one.ss08" horiz-adv-x="1171" 
d="M1071 250v-250h-977v246l344 2v665q-32 -8 -71 -8h-248v244h215q54 0 81 42t27 103v140h289v-1186z" />
    <glyph glyph-name="seven.ss08" horiz-adv-x="1134" 
d="M1092 1434v-191l-607 -1243h-305l600 1184h-463v-213h-247v463h1022z" />
    <glyph glyph-name="four.ss09" horiz-adv-x="1198" 
d="M690 1434h379v-1434h-295v309h-731v250zM774 1151l-444 -592h444v592z" />
    <glyph glyph-name="zero.tf" 
d="M57 752q0 201 68 361q67 159 193 247q125 88 296 88t296 -88q127 -89 194 -247t67 -361v-66q0 -203 -67 -361t-194 -247q-125 -88 -296 -88t-296 88q-126 88 -193 247q-68 160 -68 361v66zM877 741q0 208 -68 336q-67 127 -195 127q-127 0 -194 -127q-68 -128 -68 -336
v-45q0 -208 68 -335q67 -125 194 -125q128 0 195 125q68 127 68 335v45z" />
    <glyph glyph-name="one.tf" 
d="M1128 250v-250h-976v246l344 2v665q-32 -8 -72 -8h-248v244h215q54 0 81 42q28 44 28 103v140h288v-1186z" />
    <glyph glyph-name="two.tf" horiz-adv-x="1204" 
d="M618 678q104 83 154 153q49 68 49 152q0 105 -62 161t-167 56q-100 0 -163 -67q-62 -66 -62 -183v-22h-297v39q0 135 64 245t183 173q118 63 275 63q252 0 390 -123t138 -330q0 -147 -72 -255q-69 -103 -225 -230l-321 -262h624v-248h-1050v227z" />
    <glyph glyph-name="three.tf" horiz-adv-x="1249" 
d="M1077 628q88 -85 88 -229q0 -124 -68 -216q-69 -93 -196 -144t-295 -51q-256 0 -405 130q-150 130 -150 359h293q2 -119 80 -188q79 -70 199 -70q105 0 173 55t68 150q0 86 -67 135t-195 49h-141v236h125q119 0 183 52q65 53 65 140q0 84 -60 131q-61 47 -156 47
q-104 0 -172 -57t-69 -156h-289q2 208 142 326q142 119 376 119q248 0 386 -105t138 -278q0 -128 -76 -207q-78 -81 -204 -111q140 -33 227 -117z" />
    <glyph glyph-name="four.tf" horiz-adv-x="1275" 
d="M14 551l633 883h365v-881h198v-246h-198v-307h-289v307h-709v244zM295 553h428v594z" />
    <glyph glyph-name="five.tf" horiz-adv-x="1230" 
d="M933 914q109 -63 172 -174q62 -109 62 -255q0 -160 -72 -271q-72 -112 -196 -169q-123 -57 -274 -57q-164 0 -285 62q-123 63 -190 170q-68 109 -74 241h293q12 -99 83 -166q70 -66 173 -66q100 0 173 67q72 66 72 189q0 115 -67 186q-67 72 -178 72q-78 0 -144 -33
q-70 -35 -98 -116h-285l41 840h940v-248h-671l-17 -320q117 111 297 111q135 0 245 -63z" />
    <glyph glyph-name="six.tf" horiz-adv-x="1261" 
d="M91 430q-34 123 -34 272q0 236 72 404t205 255q134 87 313 87q204 0 346 -113t166 -305h-291q-21 87 -84 133q-64 47 -159 47q-140 0 -214 -107q-75 -108 -75 -306v-35l18 31q49 75 141 122q90 46 197 46q143 0 253 -62q109 -61 171 -171t62 -253t-67 -256
q-66 -111 -188 -171q-121 -60 -280 -60q-148 0 -263 58t-192 167q-62 90 -97 217zM819 659q-66 72 -174 72t-177 -72t-69 -184q0 -111 67 -184q66 -72 175 -72q108 0 176 73t68 183q0 112 -66 184z" />
    <glyph glyph-name="seven.tf" horiz-adv-x="1167" 
d="M90 1434h1051v-191l-631 -1243h-320l627 1184h-727v250z" />
    <glyph glyph-name="eight.tf" horiz-adv-x="1245" 
d="M1086 631q85 -89 85 -242q0 -119 -64 -210q-65 -92 -188 -141q-126 -50 -298 -50t-298 50q-125 50 -189 141t-64 210q0 150 84 240t215 119q-112 30 -185 112t-73 209q0 113 60 199q61 87 176 133q117 47 274 47q156 0 273 -47q115 -46 176 -133q60 -86 60 -199
q0 -120 -74 -206t-184 -115q128 -27 214 -117zM461 1188q-62 -51 -62 -133q0 -83 62 -136t160 -53q93 0 158 54q63 52 63 135q0 82 -63 133t-158 51q-99 0 -160 -51zM803 255q74 60 74 153t-74 156q-73 63 -182 63q-112 0 -185 -63q-74 -63 -74 -156t74 -153t185 -60
q109 0 182 60z" />
    <glyph glyph-name="nine.tf" horiz-adv-x="1261" 
d="M1141 1017q37 -129 37 -284q0 -355 -154 -551q-152 -194 -436 -194q-222 0 -358 109t-160 309h288q22 -89 83 -134q64 -47 161 -47q142 0 218 109q75 108 75 305v37q-29 -40 -33 -45q-50 -71 -134 -112q-81 -40 -185 -40q-143 0 -254 60t-171 168q-61 110 -61 251
q0 140 67 253q66 111 188 174t280 63q144 0 255 -54q110 -53 187 -155q70 -93 107 -222zM416 780q65 -71 174 -71t177 71q69 72 69 183q0 109 -67 182q-66 72 -175 72q-108 0 -176 -72q-68 -73 -68 -182q0 -111 66 -183z" />
    <glyph glyph-name="seven.tf.ss08" horiz-adv-x="1167" 
d="M1145 1434v-191l-606 -1243h-306l601 1184h-463v-213h-248v463h1022z" />
    <glyph glyph-name="four.tf.ss09" 
d="M707 1434h378v-1434h-294v309h-732v250zM791 1151l-445 -592h445v592z" />
    <glyph glyph-name="zero.tf.zero" 
d="M910 1360q127 -89 194 -247t67 -361v-66q0 -203 -67 -361t-194 -247q-125 -88 -296 -88t-296 88q-126 88 -193 247q-68 160 -68 361v66q0 201 68 361q67 159 193 247q125 88 296 88t296 -88zM346 696q0 -72 8 -133l475 494q-72 160 -215 160q-129 0 -198 -131
q-70 -132 -70 -345v-45zM883 741q0 65 -6 127l-474 -493q72 -152 211 -152q130 0 199 129q70 131 70 344v45z" />
    <glyph glyph-name="zero.tosf" 
d="M129 804q73 123 199 191q129 70 286 70q158 0 287 -70q126 -68 199 -191q71 -120 71 -278q0 -157 -71 -277q-74 -124 -199 -192q-127 -69 -287 -69q-158 0 -286 69q-125 68 -199 192q-72 121 -72 277t72 278zM805 738q-74 83 -191 83q-114 0 -189 -84t-75 -211
q0 -129 75 -213t189 -84q118 0 191 84q74 85 74 213q0 129 -74 212z" />
    <glyph glyph-name="one.tosf" 
d="M1155 240v-240h-979v240h348v368q-53 -10 -104 -10h-227v236h229q55 0 81 38q27 39 27 101v80h283v-813h342z" />
    <glyph glyph-name="two.tosf" 
d="M1106 231v-231h-952v217l450 242q103 53 152 102t49 115q0 69 -50 111t-134 42q-86 0 -139 -52q-54 -53 -54 -136v-25h-287v25q0 118 59 215q59 96 169 153q109 56 260 56q139 0 247 -48q105 -47 165 -134q59 -86 59 -199q0 -97 -65 -180q-63 -81 -177 -137l-272 -136
h520z" />
    <glyph glyph-name="three.tosf" 
d="M1081 249q88 -85 88 -229q0 -124 -68 -216q-69 -93 -196 -144t-295 -51q-256 0 -405 130q-150 131 -150 359h293q2 -119 80 -188q79 -70 199 -70q103 0 173 56q68 55 68 149q0 86 -67 135t-195 49h-141v236h125q119 0 183 52q65 53 65 140q0 85 -60 131q-62 48 -155 48
q-103 0 -172 -58t-70 -155h-289q1 207 142 325q142 119 376 119q249 0 386 -104q139 -106 139 -279q0 -127 -77 -207t-204 -110q139 -33 227 -118z" />
    <glyph glyph-name="four.tosf" 
d="M647 1053h361v-809h180v-244h-180v-369h-279v369h-692v244zM729 780l-399 -536h399v536z" />
    <glyph glyph-name="five.tosf" 
d="M927 523q107 -64 166 -173q60 -111 60 -250q0 -153 -71 -262t-190 -164t-267 -55q-157 0 -274 59q-116 59 -183 162q-66 102 -72 230h291q11 -93 75 -154t163 -61q103 0 168 68t65 179t-64 179q-64 69 -169 69q-157 0 -224 -149l-286 2l41 850h911v-248h-659l-17 -336
q61 63 131 89q75 28 166 28q134 0 239 -63z" />
    <glyph glyph-name="six.tosf" 
d="M998 1314q133 -109 157 -304h-289q-27 83 -84 130q-56 46 -147 46q-140 0 -216 -103q-75 -102 -75 -288v-39l21 32q108 144 327 144q142 0 248 -60q108 -61 165 -165q58 -106 58 -246q0 -139 -69 -247q-68 -106 -191 -167q-119 -59 -272 -59q-272 0 -428 207
q-66 85 -102 218q-35 128 -35 283q0 346 152 535q153 190 429 190q220 0 351 -107zM470 638q-67 -67 -67 -169q0 -110 65 -181t169 -71q102 0 167 68q64 67 64 174t-63 176q-64 70 -166 70t-169 -67z" />
    <glyph glyph-name="seven.tosf" 
d="M92 1053h1022v-234l-604 -1188h-320l603 1176h-701v246z" />
    <glyph glyph-name="eight.tosf" 
d="M1079 620q82 -86 82 -237q0 -117 -63 -206q-64 -90 -188 -139q-126 -50 -296 -50q-173 0 -297 50q-122 49 -186 139q-63 89 -63 206q0 148 80 232q80 85 210 118q-109 33 -179 112t-70 204q0 110 60 194t175 131t270 47q156 0 271 -47t175 -131t60 -194q0 -117 -72 -199
q-72 -83 -178 -113q126 -30 209 -117zM460 1171q-61 -52 -61 -133q0 -83 61 -136q59 -52 154 -52q96 0 155 52q60 53 60 136q0 82 -60 133q-61 52 -155 52q-93 0 -154 -52zM795 253q71 59 71 155q0 94 -71 155q-73 62 -181 62q-107 0 -180 -62q-72 -61 -72 -155
q0 -95 72 -155t180 -60q109 0 181 60z" />
    <glyph glyph-name="nine.tosf" 
d="M1128 637q35 -132 35 -285q0 -349 -152 -540q-154 -193 -429 -193q-220 0 -352 108t-156 304h288q27 -83 84 -130q56 -46 148 -46q144 0 217 106q74 107 74 297v37l-27 -41q-52 -68 -136 -102q-82 -33 -185 -33q-143 0 -248 59q-107 60 -165 166t-58 244q0 140 69 248
t191 168q119 59 272 59q270 0 428 -209q67 -85 102 -217zM422 415q63 -69 166 -69q105 0 171 69t66 173q0 107 -64 175t-169 68t-169 -68q-65 -70 -65 -173q0 -105 64 -175z" />
    <glyph glyph-name="seven.tosf.ss08" horiz-adv-x="1181" 
d="M86 1053h1034v-234l-602 -1188h-319l600 1176h-461v-217h-252v463z" />
    <glyph glyph-name="four.tosf.ss09" 
d="M707 1053h378v-1434h-294v309h-732v250zM791 770l-445 -592h445v592z" />
    <glyph glyph-name="zero.tosf.zero" 
d="M901 995q126 -68 199 -191q71 -120 71 -278q0 -157 -71 -277q-74 -124 -199 -192q-127 -69 -287 -69q-158 0 -286 69q-125 68 -199 192q-72 121 -72 277t72 278q73 123 199 191q129 70 286 70q158 0 287 -70zM421 742q-77 -86 -77 -216q0 -72 27 -139l387 399
q-64 41 -144 41q-117 0 -193 -85zM809 308q76 85 76 218q0 76 -29 140l-385 -400q61 -43 143 -43q119 0 195 85z" />
    <glyph glyph-name="zero.zero" horiz-adv-x="1323" 
d="M970 1361q134 -86 209 -243q74 -155 74 -368v-66q0 -218 -74 -372q-75 -156 -209 -240t-308 -84q-175 0 -308 84t-208 240q-74 154 -74 372v66q0 213 74 368q75 157 209 243q133 85 307 85q175 0 308 -85zM360 694q0 -93 15 -159l514 534q-39 66 -97 100q-59 35 -130 35
q-137 0 -220 -122q-82 -121 -82 -343v-45zM963 739q0 94 -15 160l-512 -537q79 -133 226 -133q136 0 219 122q82 121 82 343v45z" />
    <glyph glyph-name="u1F10C.zero" horiz-adv-x="1613" 
d="M427 1353q-169 -93 -265 -259t-96 -377t96 -377t265 -259t380 -93q213 0 382 93t265 259t96 377t-96 377t-265 259t-382 93q-211 0 -380 -93zM1042 998q86 -104 86 -281q0 -178 -86 -282q-85 -103 -235 -103t-235 103t-85 282q0 178 85 281q86 104 235 104t235 -104z
M714 876q-34 -58 -34 -159q0 -39 6 -76l207 244q-30 49 -86 49q-59 0 -93 -58zM900 557q34 56 34 160q0 41 -6 74l-207 -244q35 -47 86 -47q59 0 93 57z" />
    <glyph glyph-name="u1F10B.zero" horiz-adv-x="1617" 
d="M1192 1353q171 -94 266 -259q96 -166 96 -377t-96 -377q-95 -165 -266 -259q-169 -93 -383 -93q-213 0 -382 93t-265 259t-96 377t96 377t265 259q170 93 382 93q214 0 383 -93zM532 1197q-121 -69 -191 -197q-69 -126 -69 -283q0 -158 69 -284t191 -196q124 -71 277 -71
q152 0 276 71q123 71 192 196q69 126 69 284q0 157 -69 283q-69 127 -192 197q-124 71 -276 71q-153 0 -277 -71zM1044 998q86 -104 86 -281q0 -178 -86 -282q-85 -103 -235 -103t-235 103t-85 282q0 178 85 281q86 104 235 104t235 -104zM716 876q-34 -58 -34 -159
q0 -39 6 -76l207 244q-30 49 -86 49q-59 0 -93 -58zM902 557q34 56 34 160q0 41 -6 74l-207 -244q35 -47 86 -47q59 0 93 57z" />
    <glyph glyph-name="zero.dnom" horiz-adv-x="712" 
d="M122 654q86 104 234 104q150 0 236 -104t86 -281q0 -178 -86 -282q-85 -103 -236 -103q-149 0 -234 103t-85 282q0 178 85 281zM446 528q-34 58 -90 58t-90 -58q-33 -57 -33 -155q0 -100 33 -157q32 -56 90 -56t90 56q33 57 33 157q0 98 -33 155z" />
    <glyph glyph-name="one.dnom" horiz-adv-x="415" 
d="M166 0v442q-15 -6 -39 -6h-127v174h117q23 0 39 22q14 20 14 52v61h188v-745h-192z" />
    <glyph glyph-name="two.dnom" horiz-adv-x="669" 
d="M33 475q0 127 84 205t209 78q134 0 218 -70q83 -69 83 -182q0 -77 -37 -126q-38 -50 -101 -95l-151 -109h297v-176h-594v166l299 207q37 27 61 59q23 31 23 70q0 36 -27 60t-69 24q-48 0 -75 -30q-28 -31 -28 -89v-6h-192v14z" />
    <glyph glyph-name="three.dnom" horiz-adv-x="688" 
d="M133 691q79 67 215 67q131 0 209 -58q76 -57 76 -149q0 -61 -36 -102q-37 -42 -89 -58q67 -15 106 -58t39 -112q0 -108 -84 -171q-83 -62 -231 -62q-150 0 -228 68q-80 69 -81 198h196q6 -98 111 -98q47 0 77 21q29 20 29 59q0 38 -29 58q-30 21 -85 21h-41v129h45
q45 0 74 20q28 19 28 52q0 34 -24 54q-25 20 -66 20q-44 0 -72 -23q-27 -22 -28 -61h-193q5 119 82 185z" />
    <glyph glyph-name="four.dnom" horiz-adv-x="722" 
d="M336 745h242v-411h110v-170h-110v-164h-191v164h-352v170zM387 559l-166 -225h166v225z" />
    <glyph glyph-name="five.dnom" horiz-adv-x="651" 
d="M575 580h-348l-8 -129q58 53 146 53q112 0 181 -69q68 -68 68 -181q0 -120 -79 -193t-209 -73q-121 0 -196 65q-76 66 -87 174h190q6 -31 32 -49q25 -18 63 -18q39 0 64 25q26 26 26 69t-26 69q-25 25 -66 25q-31 2 -53 -12q-23 -14 -35 -39h-185l21 448h501v-165z" />
    <glyph glyph-name="six.dnom" horiz-adv-x="677" 
d="M123 649q91 109 237 109q106 0 185 -62q77 -61 94 -168h-186q-7 36 -36 60q-26 22 -69 22q-62 0 -99 -55q-38 -56 -38 -133v-35q22 47 62 73q42 27 108 27q120 0 191 -67q73 -68 73 -180q0 -114 -80 -183q-79 -69 -213 -69q-149 0 -234 101t-85 271q0 181 90 289z
M426 312q-30 28 -74 28q-43 0 -73 -28q-29 -27 -29 -72q0 -44 28 -72q27 -27 74 -27q48 0 75 27q28 28 28 72q0 45 -29 72z" />
    <glyph glyph-name="seven.dnom" horiz-adv-x="616" 
d="M31 748h559v-156l-285 -592h-213l285 580h-346v168z" />
    <glyph glyph-name="eight.dnom" horiz-adv-x="694" 
d="M72 322q38 47 110 69q-63 28 -92 67q-31 42 -31 101q0 87 78 143q79 56 211 56t212 -56q79 -55 79 -143q0 -62 -32 -102q-32 -39 -91 -66q71 -22 109 -69q37 -46 37 -113q0 -99 -84 -160q-83 -61 -230 -61q-146 0 -229 61q-84 61 -84 160q0 67 37 113zM422 594
q-28 22 -74 22q-44 0 -72 -22t-28 -59q0 -38 28 -60t72 -22q49 0 75 22q28 23 28 60q0 36 -29 59zM431 290q-31 25 -83 25q-50 0 -82 -25q-33 -26 -33 -65q0 -37 33 -62q34 -26 82 -26t82 26q33 25 33 62q0 39 -32 65z" />
    <glyph glyph-name="nine.dnom" horiz-adv-x="677" 
d="M555 96q-90 -108 -238 -108q-107 0 -184 61t-94 168h186q7 -35 36 -59q28 -23 69 -23q63 0 100 52t37 137v34q-46 -100 -172 -100q-118 0 -191 68q-71 67 -71 180t80 182q81 70 213 70q148 0 234 -102q85 -101 85 -271q0 -181 -90 -289zM252 433q28 -27 74 -27
q44 0 73 27t29 73q0 44 -28 72q-26 26 -74 26q-49 0 -75 -26q-28 -28 -28 -72q0 -46 29 -73z" />
    <glyph glyph-name="zero.numr" horiz-adv-x="712" 
d="M122 1345q85 103 234 103q151 0 236 -103q86 -104 86 -282t-86 -282q-85 -103 -236 -103q-149 0 -234 103t-85 282t85 282zM446 1219q-33 57 -90 57t-90 -57t-33 -156q0 -100 33 -157q32 -56 90 -56t90 56q33 57 33 157q0 99 -33 156z" />
    <glyph glyph-name="one.numr" horiz-adv-x="415" 
d="M166 688v442q-16 -6 -39 -6h-127v174h117q23 0 39 22q14 20 14 52v62h188v-746h-192z" />
    <glyph glyph-name="two.numr" horiz-adv-x="669" 
d="M33 1163q0 127 84 205t209 78q134 0 218 -70q83 -69 83 -182q0 -77 -37 -126q-38 -50 -101 -95l-151 -109h297v-176h-594v166l299 207q37 27 61 59q23 31 23 70q0 36 -27 60t-69 24q-48 0 -75 -30q-28 -31 -28 -89v-6h-192v14z" />
    <glyph glyph-name="three.numr" horiz-adv-x="688" 
d="M133 1381q79 67 215 67q132 0 209 -57q76 -57 76 -150q0 -61 -36 -102q-37 -42 -89 -58q67 -15 106 -58t39 -112q0 -108 -84 -171q-83 -62 -231 -62q-150 0 -228 68q-80 69 -81 198h196q6 -98 111 -98q47 0 77 21q29 20 29 59q0 38 -29 58q-31 22 -85 22h-41v129h45
q46 0 74 19t28 52q0 36 -24 55q-23 19 -66 19q-44 0 -72 -23q-27 -22 -28 -61h-193q5 119 82 185z" />
    <glyph glyph-name="four.numr" horiz-adv-x="722" 
d="M336 1434h242v-412h110v-170h-110v-164h-191v164h-352v170zM387 1247l-166 -225h166v225z" />
    <glyph glyph-name="five.numr" horiz-adv-x="651" 
d="M575 1268h-348l-8 -129q58 53 146 53q112 0 181 -69q68 -68 68 -181q0 -119 -79 -192q-80 -74 -209 -74q-121 0 -196 65q-76 66 -87 174h190q6 -31 32 -49q25 -18 63 -18q39 0 64 25q26 26 26 69t-26 69q-25 25 -66 25q-31 2 -53 -12q-23 -14 -35 -39h-185l21 449h501
v-166z" />
    <glyph glyph-name="six.numr" horiz-adv-x="677" 
d="M123 1339q91 109 237 109q106 0 185 -62q78 -61 94 -167h-186q-7 35 -36 59q-26 22 -69 22q-62 0 -99 -55q-38 -56 -38 -133v-35q22 47 62 73q44 28 108 28q118 0 191 -68t73 -180q0 -113 -80 -182q-81 -70 -213 -70q-149 0 -234 101t-85 272q0 180 90 288zM426 1002
q-30 28 -74 28q-43 0 -73 -28q-29 -27 -29 -72q0 -44 28 -72q27 -27 74 -27q48 0 75 27q28 28 28 72q0 45 -29 72z" />
    <glyph glyph-name="seven.numr" horiz-adv-x="616" 
d="M31 1434h559v-156l-285 -592h-213l285 580h-346v168z" />
    <glyph glyph-name="eight.numr" horiz-adv-x="694" 
d="M72 1012q38 47 110 69q-63 28 -92 67q-31 42 -31 101q0 89 78 144q77 55 211 55q133 0 212 -55t79 -144q0 -62 -32 -102q-32 -39 -91 -66q71 -22 109 -69q37 -46 37 -113q0 -99 -84 -160q-83 -61 -230 -61q-146 0 -229 61q-84 61 -84 160q0 67 37 113zM422 1284
q-29 23 -74 23q-43 0 -72 -23q-28 -22 -28 -59q0 -38 28 -60t72 -22q49 0 75 22q28 23 28 60q0 36 -29 59zM431 980q-32 26 -83 26q-48 0 -82 -26q-33 -26 -33 -65q0 -37 33 -62q34 -26 82 -26t82 26q33 25 33 62q0 39 -32 65z" />
    <glyph glyph-name="nine.numr" horiz-adv-x="677" 
d="M555 786q-90 -108 -238 -108q-107 0 -184 61t-94 168h186q7 -35 36 -59q28 -23 69 -23q62 0 100 53q37 52 37 136v35q-47 -101 -172 -101q-118 0 -191 68q-71 67 -71 180t80 182q81 70 213 70q149 0 234 -101t85 -272q0 -181 -90 -289zM252 1123q28 -27 74 -27
q44 0 73 27t29 73q0 44 -28 72q-26 26 -74 26q-49 0 -75 -26q-28 -28 -28 -72q0 -46 29 -73z" />
    <glyph glyph-name="uni2080.zero" horiz-adv-x="712" 
d="M592 450q86 -104 86 -282t-86 -282q-85 -103 -236 -103q-149 0 -234 103t-85 282t85 282t234 103q151 0 236 -103zM263 327q-34 -58 -34 -159q0 -32 7 -76l206 244q-30 49 -86 49q-59 0 -93 -58zM450 8q33 55 33 160q0 41 -6 74l-207 -244q35 -47 86 -47q60 0 94 57z" />
    <glyph glyph-name="zero.dnom.zero" horiz-adv-x="712" 
d="M592 654q86 -104 86 -281q0 -178 -86 -282q-85 -103 -236 -103q-149 0 -234 103t-85 282q0 178 85 281q86 104 234 104q150 0 236 -104zM263 531q-34 -58 -34 -158q0 -32 7 -76l206 244q-30 49 -86 49q-58 0 -93 -59zM450 213q33 55 33 160q0 40 -6 73l-207 -243
q35 -47 86 -47q60 0 94 57z" />
    <glyph glyph-name="zero.numr.zero" horiz-adv-x="712" 
d="M592 1345q86 -104 86 -282t-86 -282q-85 -103 -236 -103q-149 0 -234 103t-85 282t85 282t234 103q151 0 236 -103zM263 1222q-34 -58 -34 -159q0 -32 7 -76l206 244q-30 49 -86 49q-59 0 -93 -58zM450 903q33 55 33 160q0 41 -6 74l-207 -244q35 -47 86 -47q60 0 94 57z
" />
    <glyph glyph-name="uni2070.zero" horiz-adv-x="712" 
d="M592 1549q86 -104 86 -281q0 -178 -86 -282q-85 -103 -236 -103q-149 0 -234 103t-85 282q0 178 85 281q86 104 234 104q150 0 236 -104zM263 1426q-34 -58 -34 -158q0 -32 7 -76l206 244q-30 49 -86 49q-58 0 -93 -59zM450 1108q33 55 33 160q0 40 -6 73l-207 -243
q35 -47 86 -47q60 0 94 57z" />
    <glyph glyph-name="backslash.case" horiz-adv-x="710" 
d="M297 1434l469 -1434h-291l-467 1434h289z" />
    <glyph glyph-name="periodcentered.case" horiz-adv-x="589" 
d="M170 839q50 48 125 48t124 -49q50 -50 50 -123q0 -74 -50 -122q-49 -48 -124 -48t-125 48q-49 48 -49 122q0 76 49 124z" />
    <glyph glyph-name="colon.case" horiz-adv-x="507" 
d="M129 1148q50 48 125 48t124 -49q50 -50 50 -123q0 -74 -50 -122t-124 -48q-76 0 -125 48t-49 122q0 76 49 124zM129 435q50 48 125 48t124 -49q50 -50 50 -123q0 -74 -50 -122t-124 -48q-76 0 -125 48t-49 122q0 76 49 124z" />
    <glyph glyph-name="semicolon.case" horiz-adv-x="507" 
d="M389 402q60 -75 60 -193q0 -169 -103 -260t-280 -92v149q94 1 144 41q50 39 50 98q0 19 -2 29q-32 -16 -65 -16q-60 0 -100 40t-40 115q0 68 52 116q53 48 128 48q96 0 156 -75zM119 1146q50 48 125 48t124 -49q50 -50 50 -123q0 -74 -50 -122t-124 -48q-76 0 -125 48
t-49 122q0 76 49 124z" />
    <glyph glyph-name="slash.case" horiz-adv-x="710" 
d="M444 1434h289l-467 -1434h-291z" />
    <glyph glyph-name="braceleft.case" horiz-adv-x="782" 
d="M551 1143q-37 -37 -37 -107q0 -30 6 -73q6 -33 6 -68q0 -70 -46 -115q-47 -45 -113 -63q68 -16 115 -63q46 -46 46 -113q0 -17 -8 -70q-6 -39 -6 -74q0 -69 37 -106t123 -39h76v-252h-109q-184 0 -286 63q-101 62 -101 234q0 23 4 63q6 52 6 84q0 84 -48 118
q-47 34 -157 34v244q114 0 158 33q47 35 47 118q0 33 -6 76q-4 40 -4 70q0 171 101 233q104 64 286 64h109v-252h-76q-86 -2 -123 -39z" />
    <glyph glyph-name="braceright.case" horiz-adv-x="782" 
d="M565 873q44 -33 158 -33v-244q-110 0 -157 -34q-48 -34 -48 -118q0 -32 6 -84q4 -40 4 -63q0 -172 -101 -234q-102 -63 -286 -63h-108v252h76q84 1 122 39q37 37 37 106q0 35 -6 74q-8 53 -8 70q0 67 46 113t116 63q-68 18 -114 63t-46 115q0 35 6 68q6 43 6 73
q0 70 -37 107q-38 38 -122 39h-76v252h108q182 0 286 -64q101 -62 101 -233q0 -30 -4 -70q-6 -43 -6 -76q0 -83 47 -118z" />
    <glyph glyph-name="bracketleft.case" horiz-adv-x="686" 
d="M104 1434h547v-252h-276v-930h276v-252h-547v1434z" />
    <glyph glyph-name="bracketright.case" horiz-adv-x="686" 
d="M582 1434v-1434h-547v252h276v930h-276v252h547z" />
    <glyph glyph-name="parenleft.case" horiz-adv-x="620" 
d="M140 1103q54 188 139 331h296q-99 -150 -151 -338q-51 -186 -51 -379q0 -194 52 -380q53 -191 150 -337h-296q-86 144 -139 330q-54 189 -54 387q0 197 54 386z" />
    <glyph glyph-name="parenright.case" horiz-adv-x="620" 
d="M45 0q98 149 151 337q52 186 52 380q0 193 -51 379t-152 338h297q83 -140 138 -331q55 -193 55 -386q0 -195 -55 -387q-54 -189 -138 -330h-297z" />
    <glyph glyph-name="emdash.case" horiz-adv-x="1914" 
d="M92 850h1731v-254h-1731v254z" />
    <glyph glyph-name="endash.case" horiz-adv-x="1249" 
d="M92 596v254h1065v-254h-1065z" />
    <glyph glyph-name="hyphen.case" horiz-adv-x="901" 
d="M92 596v254h717v-254h-717z" />
    <glyph glyph-name="guillemotleft.case" horiz-adv-x="1265" 
d="M674 1247l-307 -526l307 -526h-291l-311 526l311 526h291zM1188 1245l-307 -526l307 -526h-291l-311 526l311 526h291z" />
    <glyph glyph-name="guillemotright.case" horiz-adv-x="1265" 
d="M592 1247h291l311 -526l-311 -526h-291l307 526zM78 1245h291l311 -526l-311 -526h-291l307 526z" />
    <glyph glyph-name="guilsinglleft.case" horiz-adv-x="749" 
d="M373 1239h309l-307 -522l307 -522h-309l-312 522z" />
    <glyph glyph-name="guilsinglright.case" horiz-adv-x="749" 
d="M377 1239l311 -522l-311 -522h-309l307 522l-307 522h309z" />
    <glyph glyph-name="dotmath.case" horiz-adv-x="507" 
d="M129 853q50 48 125 48t124 -49q50 -50 50 -123q0 -74 -50 -122t-124 -48q-76 0 -125 48t-49 122q0 76 49 124z" />
    <glyph glyph-name="plus.case" horiz-adv-x="1054" 
d="M395 1176h262v-328h312v-244h-312v-330h-262v330h-309v244h309v328z" />
    <glyph glyph-name="minus.case" horiz-adv-x="1054" 
d="M86 604v244h883v-244h-883z" />
    <glyph glyph-name="multiply.case" horiz-adv-x="1054" 
d="M256 1176l279 -279l270 272l172 -172l-272 -270l278 -278l-184 -187l-279 281l-272 -273l-170 170l272 273l-278 276z" />
    <glyph glyph-name="divide.case" horiz-adv-x="1054" 
d="M409 1235q49 47 119 47q71 0 120 -47q48 -47 48 -119q0 -70 -48 -117q-49 -47 -120 -47q-70 0 -119 47t-49 117q0 72 49 119zM86 604v244h883v-244h-883zM409 475q49 47 119 47q71 0 120 -47q48 -47 48 -119q0 -70 -48 -116q-49 -47 -120 -47q-70 0 -119 47t-49 116
q0 72 49 119z" />
    <glyph glyph-name="equal.case" horiz-adv-x="1054" 
d="M106 813v244h842v-244h-842zM106 373v241h842v-241h-842z" />
    <glyph glyph-name="notequal.case" horiz-adv-x="1054" 
d="M948 813h-252l-65 -199h317v-241h-397l-59 -178h-287l59 178h-158v241h238l66 199h-304v244h383l56 168h286l-55 -168h172v-244z" />
    <glyph glyph-name="greater.case" horiz-adv-x="1054" 
d="M932 860v-270l-809 -336v278l487 193l-487 193v278z" />
    <glyph glyph-name="less.case" horiz-adv-x="1054" 
d="M123 590v270l809 336v-278l-488 -193l488 -193v-278z" />
    <glyph glyph-name="greaterequal.case" horiz-adv-x="1054" 
d="M932 952v-270l-809 -336v279l487 192l-487 193v278zM123 16v242h809v-242h-809z" />
    <glyph glyph-name="lessequal.case" horiz-adv-x="1054" 
d="M123 682v270l809 336v-278l-488 -193l488 -192v-279zM123 16v242h809v-242h-809z" />
    <glyph glyph-name="plusminus.case" horiz-adv-x="1054" 
d="M395 1288h262v-327h312v-244h-312v-330h-262v330h-309v244h309v327zM86 14v244h883v-244h-883z" />
    <glyph glyph-name="approxequal.case" horiz-adv-x="1054" 
d="M80 229q0 181 66 272t196 91q70 0 115 -18q51 -20 98 -50q20 -14 52 -30q22 -11 46 -11q92 0 92 109h230q0 -178 -67 -271q-66 -92 -195 -92q-70 0 -119 19t-94 51q-2 1 -5.5 3t-9.5 5.5t-12 6.5q-22 13 -38 18q-18 6 -34 6q-48 0 -70 -28t-22 -81h-229zM80 707
q0 179 66 271q66 91 196 91q72 0 115 -17q46 -19 98 -51q20 -14 52 -30q20 -10 46 -10q92 0 92 108h230q0 -178 -67 -271q-66 -91 -195 -91q-73 0 -119 18q-49 19 -94 51q-3 2 -27 16q-18 10 -38 17q-18 6 -34 6q-48 0 -70 -28t-22 -80h-229z" />
    <glyph glyph-name="asciitilde.case" horiz-adv-x="1054" 
d="M80 512q0 180 66 271t196 91q72 0 115 -17q51 -20 98 -50q25 -17 52 -31q20 -10 46 -10q92 0 92 108h230q0 -178 -67 -271q-66 -91 -195 -91q-73 0 -119 18t-94 52q-2 1 -5.5 3t-9.5 5.5t-12 6.5q-18 10 -38 17q-21 7 -34 7q-48 0 -70 -28t-22 -81h-229z" />
    </font>
</defs>
</svg>
